вход на сайт

Имя пользователя :
Пароль :

Восстановление пароля Регистрация
Elton John / Концерт Элтона Джона в Киеве [2007, Rock, TVRip]
Рейтинг:
(голосов: 1)



[img]{THEME}/images/logopost.png[/img]



Концерт Элтона Джона в Киеве/ Elton John: Live in Kiev

Исполнитель: Элтон Джон
Оригинальное название: Elton John: Live in Kiev
Год выпуска: 2007
Жанр: Rock

Описание: Бесплатный благотворительный концерт сэра Элтона Джона в Киеве на центральной площади.

Треклист:

1.Funeral for a friend / Love lies bleeding
2.Bitch is back
3.Hercules
4.Madman across the water
5.Tiny Dancer
6.Daniel
7.Rocket man
8.Honky cat
9.Sacrifice
10.I guees that why they call it the blues
11.Im still Standing
12.Bridge
13.Sorry seems to be the hardest world
14.Candle in the wind
15.Benny and the jets
16.Philadelphia freedom
17.Are you ready for love
18.Something about the way you look tonight
19.Sad songs
20.Crocodile Rock
21.Saturday nights allright for fighting
22.Dont let the sun go down on me
23.YOUR SONG
24.Circle of life


Качество: TVRip
Продолжительность: 02:19:53

Формат: Flv
Видео: XviD, 640*480, 350(kbps), 25.000(fps)
Аудио: 25.05(kHz), MPEG Audio, 1(ch), 64(kbps)

Отчет MediaInfo:
▼TextGeneral
Complete name : C:Documents and SettingsАдминистраторМои документыDownloadsКонцерт Элтона Джона в Киеве.flv
Format : Flash Video
File size : 423 MiB
Duration : 2h 20mn
Overall bit rate : 423 Kbps
Tagged date : UTC 2009-04-12 12:29:44
Tagging application : inlet media FLVTool2 v1.0.6 - http://www.inlet-media.de/flvtool2

Video
Format : H.263
Duration : 2h 20mn
Bit rate : 350 Kbps
Width : 298 pixels
Height : 240 pixels
Display aspect ratio : 5:4
Frame rate : 25.000 fps
Bits/(Pixel*Frame) : 0.196
Stream size : 353 MiB (83%)

Audio
Format : MPEG Audio
Format version : Version 2
Format profile : Layer 3
Duration : 2h 20mn
Bit rate mode : Constant
Bit rate : 64.0 Kbps
Channel(s) : 1 channel
Sampling rate : 22.05 KHz
Stream size : 67.8 MiB (16%)
Writing library : LAMEЄ–Ф


4138b33025acf9d26cf7a4d600cba467ae99cbf7Elton John / Концерт Элтона Джона в Киеве [2007, Rock, TVRip] Elton John / Концерт Элтона Джона в Киеве [2007, Rock, TVRip] " />

Аплоадер: Админ, дата: 30-08-2011, 21:57, торрент скачан: 359 раз

Понравилась раздача? Посмотрите эти:
Информация
Посетители, находящиеся в группе Гости, не могут оставлять комментарии к данной публикации.