вход на сайт

Имя пользователя :
Пароль :

Восстановление пароля Регистрация
Rihanna / Live At Rock In Rio [2010, R&B, TVRip]
Рейтинг:
(голосов: 1)



[img]{THEME}/images/logopost.png[/img]



Rihanna - Live At Rock In Rio

Исполнитель: Rihanna
Оригинальное название: Live At Rock In Rio (Music Festival in Madrid)
Год выпуска: 05/06/2010
Жанр: R&B

Описание:Rihanna - барбадоcская певица, фотомодель и модный дизайнер. о состоянию на июнь 2011 года, десять раз возглавляла Billboard Hot 100, больше, чем кто-либо за последние 5 лет. Отличный концерт, живая музыка, живой голос.

Треклист: ▼
1.Mad House & Hard
2.Shut Up And Drive
3.Fire Bomb
4.Disturbia
5.Rockstar 101
6.Rude Boy
7.Hate That I Love You
8.Rehab
9.Unfaithful & Stupid in Love
10.Te Amo
11.Dance Medley
12.Let Me & SOS
13.Take a Bow
14.Wait Your Turn, Live Your Life & Run This Town
15.Umbrella

MediaInfo ▼General
General
Complete name : Rihanna Live 2010 NEWihanna-live_at_rock_in_rio_madrid-x264-2010-proxy.mkv
Format : Matroska
File size : 1.46 GiB
Duration : 1h 20mn
Overall bit rate : 2 602 Kbps
Encoded date : UTC 2010-06-08 16:36:12
Writing application : mkvmerge v4.0.0 (The Stars were mine) built on Jun 6 2010 16:18:42
Writing library : libebml v1.0.0 + libmatroska v1.0.0
Video
ID : 1
Format : AVC
Format/Info : Advanced Video Codec
Format profile : [email protected]
Format settings, CABAC : Yes
Format settings, ReFrames : 5 frames
Muxing mode : Container [email protected]
Codec ID : V_MPEG4/ISO/AVC
Duration : 1h 20mn
Bit rate : 2 359 Kbps
Nominal bit rate : 2 408 Kbps
Width : 704 pixels
Height : 400 pixels
Display aspect ratio : 16/9
Frame rate : 25.000 fps
Resolution : 24 bits
Colorimetry : 4:2:0
Scan type : Progressive
Bits/(Pixel*Frame) : 0.335
Stream size : 1.32 GiB (91%)
Writing library : x264 core 98 r1629 2e81ce1
Encoding settings : cabac=1 / ref=5 / deblock=1:0:0 / analyse=0x1:0x111 / me=umh / subme=8 / psy=1 / psy_rd=1.00:0.00 / mixed_ref=1 / me_range=16 / chroma_me=1 / trellis=1 / 8x8dct=0 / cqm=0 / deadzone=21,11 / fast_pskip=1 / chroma_qp_offset=-2 / threads=3 / sliced_threads=0 / nr=0 / decimate=1 / interlaced=0 / constrained_intra=0 / bframes=3 / b_pyramid=2 / b_adapt=1 / b_bias=0 / direct=1 / weightb=1 / weightp=2 / keyint=250 / keyint_min=25 / scenecut=40 / intra_refresh=0 / rc_lookahead=40 / rc=2pass / mbtree=1 / bitrate=2408 / ratetol=1.0 / qcomp=0.60 / qpmin=10 / qpmax=51 / qpstep=4 / cplxblur=20.0 / qblur=0.5 / ip_ratio=1.40 / aq=1:1.00
Audio
ID : 2
Format : MPEG Audio
Format version : Version 1
Format profile : Layer 2
Codec ID : A_MPEG/L2
Codec ID/Hint : MP2
Duration : 1h 20mn
Bit rate mode : Constant
Bit rate : 192 Kbps
Channel(s) : 2 channels
Sampling rate : 48.0 KHz
Resolution : 16 bits
Stream size : 110 MiB (7%)

Скриншоты ▼


Качество: TVRip
Продолжительность: 01:20:00

Формат: MKV
Видео: AVC, 704x400 (16x9), 25.000 fps, 2359 Kbps, 0.33 bit/pixel
Аудио: 48 kHz, MPEG Audio, 2 channels, 192 kbps

Rihanna | Wiki | MySpace | Last.Fm | Facebook | Discogs | Youtube



84ba429ba8a38a5d92733bbc8b6cfb0bcd07982fRihanna / Live At Rock In Rio [2010, R&B, TVRip] Rihanna / Live At Rock In Rio [2010, R&B, TVRip] " />

Аплоадер: Админ, дата: 1-08-2011, 19:33, торрент скачан: 359 раз

Понравилась раздача? Посмотрите эти:
  • Rihanna / Live at iHeartRadio Music Festival [2012, Pop, HDTVRip 720p]
  • FLO / NRG [2012, Pop, Dance, MasterRip]
  • Eminem / Rap God [2013, Rap, HDRip]
  • Brit Smith feat. Will.i.am / Provocative (Explicit) [2013, Hip-Hop, HDRip]
  • Havana Brown / Warrior [2013, Dance, HDRip]
  • Justin Timberlake / TKO [2013, Pop, MasterRip]
  • Beyonce / Rock In Rio [2013, R&B, HDTVRip]
  • America Sierra feat. 3BallMTY / Porque El Amor Manda [2013, Dance, Tribal, ...
  • AC/DC / Live at Donington [1991, Hard Rock, BDRip]
  • UFC The Ultimate 100 Knockouts - PPV [MMA,2013, HDTVRip 720p]
  • UFC - Best Of 2012 Year In Review[MMA,2013, BDRip 540p]
  • Все голы Евро-2012 [Футбол,2012, HDTVRip]
  • Товарищеский матч / США - Бразилия / ESPN [16.07.2012, Баскетбол, WEB-DLRip ...
  • Чемпионат Англии 2012-2013 / 12-й тур / Обзор / Суббота / BBC Sport [2012 г ...
  • Sting / Live in Berlin [2010, (Rock, Orchestral), BDRip]
  • Jon Anderson / The Contemporary Youth Orchestra [2010, Art-Rock, Contempora ...
  • The Australian Pink Floyd Show / Live At Hammersmith Apollo 2011 [2012, Roc ...
  • Mylene Farmer / Du Temps [2011, Pop, HDTVRip]
  • Mylene Farmer / Bleu Noir [2011, Pop, HDTVRip]
  • Emerson Lake & Palmer / 40th Anniversary Reunion Concert (Live)[2011, Progr ...
  • Rihanna - Loud Tour Live At The O2 [2012, Pop, RB, BDRip]
  • (Дискография, 2005-2012) Rihanna (R&B/ Dancehall/ Reggae/ Hip-Hop/ Dance/ P ...
  • (2010) Rihanna / Коллекция минусовок (Pop / RnB) [MP3, 128-320 Kbps / CBR]
  • (2011) Rihanna / Whats My Name: Ultimate Rihanna (RnB) [MP3, 128/CRB]
  • Суперкубок Испании 2010 / ответный матч+награждение, Барселона – Севилья / ...
  • Информация
    Посетители, находящиеся в группе Гости, не могут оставлять комментарии к данной публикации.