вход на сайт

Имя пользователя :
Пароль :

Восстановление пароля Регистрация
t.A.T.u. / Sparks [2010, Pop, TVRip]
Рейтинг:
(голосов: 1)



[img]{THEME}/images/logopost.png[/img]



Исполнитель: t.A.T.u.
Оригинальное название: Sparks
Год выпуска: 2010
Жанр: Pop

Описание: Веселенький новый клип от Тату. Смотрим и наслаждаемся!

Качество: TVRip
Продолжительность: 00:03:01

Формат: MPEG
Видео: MPEG-2 Video2, 672 Кбит/сек , 720 x 576 , 25.000 fps.
Аудио: MPEG-1 Audio layer 2, 48 khz, 256 Кбит/сек , 2 канала.

Техническая информация по фидео файлу: ▼

C:T.A.T.U. - Sparks (2010)T.A.T.U. - Sparks (2010).mpg
General
Complete name : C:T.A.T.U. - Sparks (2010)T.A.T.U. - Sparks (2010).mpg
Format : MPEG-PS
File size : 69.0 MiB
Duration : 3mn 3s
Overall bit rate : 3 147 Kbps
Video #224
ID : 224 (0xE0)
Format : MPEG Video
Format version : Version 2
Format profile : [email protected]
Format settings, Matrix : Default
Duration : 3mn 3s
Bit rate mode : Variable
Bit rate : 2 766 Kbps
Nominal bit rate : 15.0 Mbps
Width : 720 pixels
Height : 576 pixels
Display aspect ratio : 4:3
Frame rate : 25.000 fps
Standard : PAL
Colorimetry : 4:2:0
Scan type : Interlaced
Scan order : Top Field First
Bits/(Pixel*Frame) : 0.267
Stream size : 60.6 MiB (88%)
Audio #192
ID : 192 (0xC0)
Format : MPEG Audio
Format version : Version 1
Format profile : Layer 2
Duration : 3mn 3s
Bit rate mode : Constant
Bit rate : 256 Kbps
Channel(s) : 2 channels
Sampling rate : 48.0 KHz
Resolution : 16 bits
Video delay : -410ms
Stream size : 5.60 MiB (8%)
Проверила La Gata Negra


9640b0f7e5097caf38a170b124ddde9b48d4a842t.A.T.u. / Sparks [2010, Pop, TVRip] t.A.T.u. / Sparks [2010, Pop, TVRip] " />

Аплоадер: Админ, дата: 8-06-2010, 19:18, торрент скачан: 359 раз

Понравилась раздача? Посмотрите эти:
  • Inna / More Than Friends [2013, Pop, Master]
  • Достучаться До Небес / ГУГЛ [2013, Pop, Master]
  • (2009) Tommy Sparks / Tommy Sparks (Indietronic/ New Wave/ Electronic) [MP3 ...
  • Руби Спаркс / Ruby Sparks (Джонатан Дэйтон, Валери Фэрис, Фэнтези, мелодрам ...
  • Rihanna / Diamonds (Victorias Secret) [2012, RnB, HDTV 1080i]
  • Quincy Jones & Akon / Strawberry Letter 23 [2010, R&B, HDRip]
  • Andreea Balan / Trippin [2011, Pop, HDCam]
  • Рождество Христово - Торжественное Рождественское богослужение из Храма Хр ...
  • Coldplay / Christmas Lights [2010, Indie Rock,Britpop, HDRip]
  • [Видеоуроки] Видео уроки по Sony Vegas (2010) [640x480]
  • Тимати, B.K., DJ M.E.G. / Welcome to St. Tropez. Фан Зона. Новая Волна 2011 ...
  • Ева Польна / Парни не плачут [2010, Pop, TVRip]
  • София Ротару / Выступление в Киеве. 20-летие независимости Украины [24.08.1 ...
  • Чемпионат Испании 2011-12 / 35-й тур / Барселона - Реал М / НТВ+ [Футбол, 2 ...
  • Cover Drive / Sparks [2012, Pop, WEBRip]
  • ХХХ Летние Олимпийские Игры / Лёгкая атлетика / День 5 / Утро / Спорт 1 [07 ...
  • ХХХ Летние Олимпийские Игры / Лёгкая атлетика / День 5 / Вечер / Спорт 1 [0 ...
  • ХХХ Летние Олимпийские Игры / Волейбол / Мужчины / Четвертьфинал / Польша – ...
  • ХХХ Летние Олимпийские Игры / Лёгкая атлетика / День 6 / Вечер / Спорт 1 [0 ...
  • ХХХ Летние Олимпийские Игры / Лёгкая атлетика / День 7 / Утро / Спорт 1 [09 ...
  • Информация
    Посетители, находящиеся в группе Гости, не могут оставлять комментарии к данной публикации.