вход на сайт

Имя пользователя :
Пароль :

Восстановление пароля Регистрация
Ariana Grande - ft. Mac Miller / The Way [2013, Pop, WEB-DLRip 1080p]
Рейтинг:
(голосов: 1)



[img]{THEME}/images/logopost.png[/img]



Исполнитель: Ariana Grande - ft. Mac Miller
Оригинальное название: The Way
Год выпуска: 2013
Жанр: Pop

Качество: WEB-DLRip 1080p
Продолжительность: 00:03:51

Формат: mp4
Видео: AVC MPEG-4, 1920x1080 (16:9), 4757 kbps, 0,096 fps
Аудио: 44.100 kHz, , 2/0 (L,R) ch, 192 kbps

Информация MediaInfo ▼TextОбщее
Полное имя : E:DownloadsAriana Grande - The Way ft. Mac Miller.mp4
Формат : MPEG-4
Профиль формата : Base Media / Version 2
Идентификатор кодека : mp42
Размер файла : 137 Мбайт
Продолжительность : 3 м. 51 с.
Режим общего битрейта : Переменный
Общий поток : 4951 Кбит/сек
Дата кодирования : UTC 2013-04-08 11:14:59
Дата пометки : UTC 2013-04-08 11:14:59
gsst : 0
gstd : 231826
gssd : B58CCB1CAHH1375893735102682
gshh : r7---sn-35153iuxa-unxl.c.youtube.com

Видео
Идентификатор : 1
Формат : AVC
Формат/Информация : Advanced Video Codec
Профиль формата : [email protected]
Параметр CABAC формата : Да
Параметр ReFrames формата : 1 кадр
Идентификатор кодека : avc1
Идентификатор кодека/Информация : Advanced Video Coding
Продолжительность : 3 м. 51 с.
Битрейт : 4757 Кбит/сек
Максимальный битрейт : 8965 Кбит/сек
Ширина : 1920 пикселей
Высота : 1080 пикселей
Соотношение сторон : 16:9
Режим частоты кадров : Постоянный
Частота кадров : 23,976 кадра/сек
Цветовое пространство : YUV
Субдискретизация насыщенности : 4:2:0
Битовая глубина : 8 бит
Тип развёртки : Прогрессивная
Бит/(Пиксели*Кадры) : 0.096
Размер потока : 131 Мбайт (96%)
Дата пометки : UTC 2013-04-08 11:15:33

Аудио
Идентификатор : 2
Формат : AAC
Формат/Информация : Advanced Audio Codec
Профиль формата : LC
Идентификатор кодека : 40
Продолжительность : 3 м. 51 с.
Вид битрейта : Переменный
Битрейт : 192 Кбит/сек
Максимальный битрейт : 201 Кбит/сек
Каналы : 2 канала
Расположение каналов : Front: L R
Частота : 44,1 КГц
Метод сжатия : С потерями
Размер потока : 5,30 Мбайт (4%)
Заголовок : IsoMedia File Produced by Google, 5-11-2011
Дата кодирования : UTC 2013-04-08 11:15:22
Дата пометки : UTC 2013-04-08 11:15:33



4013a90220420981942f7c7ed54af40190cdc5a8Ariana Grande - ft. Mac Miller / The Way [2013, Pop, WEB-DLRip 1080p] Ariana Grande - ft. Mac Miller / The Way [2013, Pop, WEB-DLRip 1080p] " />

Аплоадер: Админ, дата: 7-08-2013, 23:01, торрент скачан: 359 раз

Понравилась раздача? Посмотрите эти:
Информация
Посетители, находящиеся в группе Гости, не могут оставлять комментарии к данной публикации.