вход на сайт

Имя пользователя :
Пароль :

Восстановление пароля Регистрация
Miranda Cosgrove / Dancing Crazy [2011, Pop, WEB-DLRip 720p]
Рейтинг:
(голосов: 1)



[img]{THEME}/images/logopost.png[/img]



♫ Исполнитель: Miranda Cosgrove
♫ Оригинальное название: Dancing Crazy
♫ Год выпуска: 2011
♫ Жанр: Pop

♫ Описание: Исполнительница главной роли телесериала iCarly, в клипе Dancing Crazy.

♫ Качество: WEB-DLRip 720
♫ Продолжительность: 00:04:14

♫ Формат: mp4
♫ Видео: AVC, 1280x720 (16:9), ~ 2444 kbps, 25,00 fps, 0.111 bit/pixel
♫ Аудио: 44,100 kHz, Advanced Audio Codec, 2/0 (L,R) ch, ~192 kbps

Информация MediaInfo ▼TextОбщее
Полное имя : E:DownloadsMiranda Cosgrove - Dancing Crazy.2011.WEBDLRip 720p.mp4
Формат : MPEG-4
Профиль формата : Base Media / Version 2
Идентификатор кодека : mp42
Размер файла : 80,1 Мбайт
Продолжительность : 4 м. 14 с.
Режим общего битрейта : Переменный
Общий поток : 2639 Кбит/сек
Дата кодирования : UTC 2013-06-04 17:47:31
Дата пометки : UTC 2013-06-04 17:47:31
gsst : 0
gstd : 254651
gssd : B59DA484BHH1380653678199881
gshh : r8---sn-35153iuxa-unxe.c.youtube.com

Видео
Идентификатор : 1
Формат : AVC
Формат/Информация : Advanced Video Codec
Профиль формата : [email protected]
Параметр CABAC формата : Да
Параметр ReFrames формата : 1 кадр
Идентификатор кодека : avc1
Идентификатор кодека/Информация : Advanced Video Coding
Продолжительность : 4 м. 14 с.
Битрейт : 2444 Кбит/сек
Максимальный битрейт : 4316 Кбит/сек
Ширина : 1280 пикселей
Высота : 720 пикселей
Соотношение сторон : 16:9
Режим частоты кадров : Постоянный
Частота кадров : 24,000 кадра/сек
Цветовое пространство : YUV
Субдискретизация насыщенности : 4:2:0
Битовая глубина : 8 бит
Тип развёртки : Прогрессивная
Бит/(Пиксели*Кадры) : 0.111
Размер потока : 74,2 Мбайт (93%)
Дата пометки : UTC 2013-06-04 17:47:47

Аудио
Идентификатор : 2
Формат : AAC
Формат/Информация : Advanced Audio Codec
Профиль формата : LC
Идентификатор кодека : 40
Продолжительность : 4 м. 14 с.
Вид битрейта : Переменный
Битрейт : 192 Кбит/сек
Максимальный битрейт : 201 Кбит/сек
Каналы : 2 канала
Расположение каналов : Front: L R
Частота : 44,1 КГц
Метод сжатия : С потерями
Размер потока : 5,83 Мбайт (7%)
Заголовок : IsoMedia File Produced by Google, 5-11-2011
Дата кодирования : UTC 2013-06-04 17:47:42
Дата пометки : UTC 2013-06-04 17:47:47




284794c8171d05bc26af237fee29cc97c993beeaMiranda Cosgrove / Dancing Crazy [2011, Pop, WEB-DLRip 720p] Miranda Cosgrove / Dancing Crazy [2011, Pop, WEB-DLRip 720p] " />

Аплоадер: Админ, дата: 2-10-2013, 11:36, торрент скачан: 359 раз

Понравилась раздача? Посмотрите эти:
Информация
Посетители, находящиеся в группе Гости, не могут оставлять комментарии к данной публикации.