вход на сайт

Имя пользователя :
Пароль :

Восстановление пароля Регистрация
Prodigy (of Mobb Deep) / Pretty Thug [2012, Rap, WEBRip]
Рейтинг:
(голосов: 1)



[img]{THEME}/images/logopost.png[/img]



Исполнитель: Prodigy (of Mobb Deep)
Оригинальное название: Pretty Thug
Год выпуска: 2012
Жанр: Rap

Качество: WEBRip
Продолжительность: 00:05:28

Формат: MPEG-4
Видео: AVC, 1280x720, 1332 kbps, 29.970 fps
Аудио: 44.1 kHz, AAC, 2 channel, 152 kbps
"MediaInfo" ▼
General
Format : MPEG-4
Format profile : Base Media / Version 2
Codec ID : mp42
File size : 58.2 MiB
Duration : 5mn 28s
Overall bit rate : 1 486 Kbps
Encoded date : UTC 2012-06-19 14:28:01
Tagged date : UTC 2012-06-19 14:28:01
gsst : 0
gstd : 328678
gssd : BADC20584HH1356798124097148
gshh : r13---sn-aigeznee.c.youtube.com
Video #1
ID : 1
Format : AVC
Format/Info : Advanced Video Codec
Format profile : [email protected]
Format settings, CABAC : Yes
Format settings, ReFrames : 1 frame
Codec ID : avc1
Codec ID/Info : Advanced Video Coding
Duration : 5mn 28s
Bit rate mode : Variable
Bit rate : 1 332 Kbps
Maximum bit rate : 3 118 Kbps
Width : 1 280 pixels
Height : 720 pixels
Display aspect ratio : 16:9
Frame rate mode : Constant
Frame rate : 29.970 fps
Resolution : 24 bits
Colorimetry : 4:2:0
Scan type : Progressive
Bits/(Pixel*Frame) : 0.048
Stream size : 52.2 MiB (90%)
Encoded date : UTC 1970-01-01 00:00:00
Tagged date : UTC 2012-06-19 14:28:01
Audio #2
ID : 2
Format : AAC
Format/Info : Advanced Audio Codec
Format version : Version 4
Format profile : LC
Format settings, SBR : No
Codec ID : 40
Duration : 5mn 28s
Bit rate mode : Variable
Bit rate : 152 Kbps
Maximum bit rate : 203 Kbps
Channel(s) : 2 channels
Channel positions : L R
Sampling rate : 44.1 KHz
Resolution : 16 bits
Stream size : 5.95 MiB (10%)
Title : IsoMedia File Produced by Google, 5-11-2011
Encoded date : UTC 2012-06-19 14:28:01
Tagged date : UTC 2012-06-19 14:28:01


cc3ffbacb8c1dc509f6fc90f194010baa7d4cf30Prodigy (of Mobb Deep) / Pretty Thug [2012, Rap, WEBRip] Prodigy (of Mobb Deep) / Pretty Thug [2012, Rap, WEBRip] " />

Аплоадер: Админ, дата: 29-12-2012, 23:35, торрент скачан: 359 раз

Понравилась раздача? Посмотрите эти:
  • Mylene Farmer / Monkey Me [2013, Pop, WEBRip]
  • Тимати feat. Григорий Лепс / Лондон [2012, R&B, Master]
  • Афродита / Валера [2012, Pop, HDRip]
  • Ярослава / Это любовь [2012, Pop, HDRip]
  • Жорабеков Понти / Көзімнен жас тамады сені қимай [2013, Pop, WebRip]
  • Жорабеков Понти / Жылама тек жылама [2013, Pop, WebRip]
  • Guf ft.Rigos / 420 [2013, Rap,Hip-Hop, WebRip]
  • (2011) G-Unit & Mobb Deep / Queens Till The Casket Drops (Rap/Hip-Hop ) [MP ...
  • Scooter / Its A Biz (Aint Nobody) [2012, Dance, Techno, WEBRip]
  • Гуня feat. Дым (Легенды Про) / Атака [2012, Rap, WEBRip]
  • Quincy Jones & Akon / Strawberry Letter 23 [2010, R&B, HDRip]
  • Coldplay / Christmas Lights [2010, Indie Rock,Britpop, HDRip]
  • Owl City feat. Shawn Chrystopher / Alligator Sky [2011, Electronic, HDRip]
  • Лигалайз / О-о!!! А-а!!! [2011, Hip-Hop, WEBRip]
  • Tanir (Da Gudda Jazz) / Шестиколесный Велосипед [2011, Rap, WEBRip]
  • Lana Del Rey / Born To Die [2011, Indie Pop, HDRip]
  • Герик Горилла aka Гига feat. Sokolovsky / Мама [2012, Rap, WebRip]
  • EVO (Eternal Voice of Orbits) / Зае*ала [2012, Cybercore, Nintendocore (8- ...
  • Madonna / Girl Gone Wild [2012, Pop, HDTV]
  • АК-47 / Убирай от интернета [2012, Rap, WEBRip]
  • LeBron James 2012 Finals MVP [Баскетбол, 24.06.2012, HD, 720p, H.264, EN, H ...
  • Top 10 Plays of the 2012 NBA Finals [Баскетбол, 25.06.2012, HD, 720p, H.264 ...
  • Top 10 Dunks of the 2012 NBA Finals [Баскетбол, 25.06.2012, HD, 720p, H.264 ...
  • Чемпионат Европы 2012 / TOP 10 Goals & Best Moments [Футбол, 04.07.2012, HD ...
  • (2012) Prodigy | H.N.I.C 3 (Deluxe Edition) (Hip-Hop) [MP3, 320|CBR]
  • Информация
    Посетители, находящиеся в группе Гости, не могут оставлять комментарии к данной публикации.