вход на сайт

Имя пользователя :
Пароль :

Восстановление пароля Регистрация
Som (Ginex) / За плечами [2012, Rap, WEBRip]
Рейтинг:
(голосов: 1)



[img]{THEME}/images/logopost.png[/img]



За плечами

Исполнители: Som (Ginex)
Оригинальное название: За плечами
Год выпуска: 2012
Жанр: Rap

Качество: WEBRip
Продолжительность: 00:03:16

Формат: WEBM
Видео: 1280х720 (16:9), 1000,000 кадр/с, 2276 кбит/с, 0.002 бит/пиксель
Аудио: 192кбит/с, 44.1КГц, Vorbis, 2 канала
MediaInfo ▼TextОбщее
Полное имя : C:UsersАдминистраторDownloadsSom (Ginex) - за плечами (streetvideo) (концерт в г. Ижевске 17.03.12).webm
Формат : WebM
Размер файла : 60,3 Мбайт
Продолжительность : 3 м. 16 с.
Общий поток : 2579 Кбит/сек
Программа кодирования : google
Библиотека кодирования : google

Видео
Идентификатор : 1
Формат : VP8
Идентификатор кодека : V_VP8
Продолжительность : 3 м. 16 с.
Битрейт : 2276 Кбит/сек
Ширина : 1280 пикс.
Высота : 720 пикс.
Соотношение сторон : 16:9
Частота кадров : 1000,000 кадр/сек
Метод сжатия : С потерями
Бит/(Пиксели*Кадры) : 0.002
Размер потока : 53,2 Мбайт (88%)
Язык : English / English

Аудио
Идентификатор : 2
Формат : Vorbis
Параметр Floor формата : 1
Идентификатор кодека : A_VORBIS
Продолжительность : 3 м. 16 с.
Битрейт : 192 Кбит/сек
Каналы : 2 канала
Частота : 44,1 КГц
Метод сжатия : С потерями
Размер потока : 4,49 Мбайт (7%)
Язык : English


ed928ec02c6a60a2abd6ac71f6e5326031849abcSom (Ginex) / За плечами [2012, Rap, WEBRip] Som (Ginex) / За плечами [2012, Rap, WEBRip] " />

Аплоадер: Админ, дата: 13-03-2012, 23:45, торрент скачан: 359 раз

Понравилась раздача? Посмотрите эти:
  • Hurts / Somebody to Die For [2013, Pop, WEBRip]
  • Герои / Закаты алые [2012, Pop, WebRip]
  • Ginex, Kozz Porno, Czar / AMG Making [2011, Rap, HDRip]
  • Eminem / Space Bound [2011, Rap, WEBRip]
  • Ginex / Zeig deine Flagge [2011, Rap, WEBRip]
  • Sepultura / Attitude [1996, Death Metal, WebRip]
  • E-40 & Too Short Dump Truck Feat. Travis Porter/ Function Music [2012, Rap| ...
  • (2010) Som (Ginex) / Устами бога (Rap) [Mp3, 256/CBR]
  • Stromae mc Zali & DJ Dima molotov / Алена даст [2010, Электронная музыка, W ...
  • (2010) DoN-A (GineX) / RapKontrast (Rap) [MP3, 256/CBR]
  • (2011) SoM, DoN-A (Ginex), Grom / Most-Rap AMG (Rap) [mp3, 128/CBR]
  • Сацура & St1m / Бой с тенью [2011, Rap, WebRip]
  • Micfire (Mafyo), Roulette, Som (Ginex), Don A (Ginex) & Czar / Мясо [2011, ...
  • Саша Пархоменко / Не Казанова [2012, Rap/Hip-Hop, WebRip]
  • Лион / День за днем (Интро) [2012, Rap, WebRip]
  • Чемпионат Англии 2011-12 / 27-й тур / Тоттенхэм - Манчестер Юнайтед / Спорт ...
  • Гарри Топор / Каин [2012, Rap, WebRip]
  • The Crazy Frogs / The Ding Dong Song [2012, Pop, WEBRip]
  • Twin Vi / Потерянное поколение [2012, Rap, WebRip]
  • Қайрат Нұртас / Ол сен емес [2012, Pop, WebRip ]
  • (2012) SoM (Ginex) (при уч. DoN-A, Czar, K.R.A, Grom и т.д) / За плечами (R ...
  • Digital Nox feat. DoN-A (Ginex) / Blow off ma Brian [2012, Rap/Hip-Hop, Web ...
  • Czar & Som (Ginex) / Оригинальный Рэп[2012, Rap/Hip-Hop, WebRip]
  • (2012) DoN-A (Ginex) / Когда мир заново родится (Rap) [MP3, 256/CBR]
  • DoN-A (Ginex) / Bitte Spitte 2012 [2012, Rap/Hip-Hop, WedRip]
  • Информация
    Посетители, находящиеся в группе Гости, не могут оставлять комментарии к данной публикации.