вход на сайт

Имя пользователя :
Пароль :

Восстановление пароля Регистрация
Quincy Jones & Akon / Strawberry Letter 23 [2010, R&B, HDRip]
Рейтинг:
(голосов: 1)



[img]{THEME}/images/logopost.png[/img]



Исполнитель: Quincy Jones & Akon
Оригинальное название: Strawberry Letter 23
Год выпуска: 2010
Жанр: R&B

Качество: HDRip
Продолжительность: 00:04:18

Формат: MPEG-4
Видео: AVC, 1280x720, 1939 kbps, 23.976 fps
Аудио: 44.1 kHz, AAC, 2 channel, 120 kbps
"MediaInfo" ▼
General
Format : MPEG-4
Format profile : Base Media / Version 2
Codec ID : mp42
File size : 63.5 MiB
Duration : 4mn 18s
Overall bit rate : 2 061 Kbps
Encoded date : UTC 2010-04-14 21:37:50
Tagged date : UTC 2010-04-14 21:37:50
gsst : 0
gstd : 259065
gssd : BADC205E3HH1356790512238843
gshh : r9---sn-aigeznez.c.youtube.com
Video #2
ID : 2
Format : AVC
Format/Info : Advanced Video Codec
Format profile : [email protected]
Format settings, CABAC : Yes
Format settings, ReFrames : 3 frames
Codec ID : avc1
Codec ID/Info : Advanced Video Coding
Duration : 4mn 18s
Bit rate mode : Variable
Bit rate : 1 939 Kbps
Maximum bit rate : 3 782 Kbps
Width : 1 280 pixels
Height : 720 pixels
Display aspect ratio : 16:9
Frame rate mode : Constant
Frame rate : 23.976 fps
Resolution : 24 bits
Colorimetry : 4:2:0
Scan type : Progressive
Bits/(Pixel*Frame) : 0.088
Stream size : 59.7 MiB (94%)
Title : (C) 2007 Google Inc. v08.13.2007.
Encoded date : UTC 2010-04-14 21:37:50
Tagged date : UTC 2010-04-14 21:37:51
Audio #1
ID : 1
Format : AAC
Format/Info : Advanced Audio Codec
Format version : Version 4
Format profile : LC
Format settings, SBR : No
Codec ID : 40
Duration : 4mn 18s
Bit rate mode : Variable
Bit rate : 120 Kbps
Maximum bit rate : 207 Kbps
Channel(s) : 2 channels
Channel positions : L R
Sampling rate : 44.1 KHz
Resolution : 16 bits
Stream size : 3.70 MiB (6%)
Title : (C) 2007 Google Inc. v08.13.2007.
Encoded date : UTC 2010-04-14 21:37:50
Tagged date : UTC 2010-04-14 21:37:51


56eee61544a38b60e095085e6a4e364897f3a893Quincy Jones & Akon / Strawberry Letter 23 [2010, R&B, HDRip] Quincy Jones & Akon / Strawberry Letter 23 [2010, R&B, HDRip] " />

Аплоадер: Админ, дата: 29-12-2012, 22:05, торрент скачан: 359 раз

Понравилась раздача? Посмотрите эти:
  • Nicki Minaj / Right Thru Me (Clean Version) [2010, R&B, SDMaster]
  • Akon / Get By [2013, Hip-Hop, MasterRip 4K]
  • Афродита / Валера [2012, Pop, HDRip]
  • Quest Pistols / Забудем все [2013, Pop, HDRip]
  • Bahh Tee и Руки Вверх / Крылья [2013, Pop, HDRip]
  • Виа Гра / Перемирие [2013, Pop, HDRip]
  • Горячий Шоколад / Две Недели Рая [2013, Pop, HDRip]
  • Ярослава / Это любовь [2012, Pop, HDRip]
  • NBA 2013-2014 / RS / Highlights [Баскетбол, 04.11.2013, WEB-DL HD/720p, MP4 ...
  • Герои / Любовь - это химия [2011, Pop, HDRip]
  • Полное прохождение Grand Theft Auto V (GTA 5) [HD / RUS / 2013]
  • WWE Extreme Rules + Preshow [19.05.2013, Рестлинг, WEB-DL-HDTV/720p, MP4-MK ...
  • Пропаганда / Знаешь (Dj Pomeha remix) [2010, Pop, HDRip ]
  • 3OH!3 / Double Vision [2009, R&B, WEB]
  • Prodigy (of Mobb Deep) / Pretty Thug [2012, Rap, WEBRip]
  • Суперкубок Испании 2010 / ответный матч+награждение, Барселона – Севилья / ...
  • Coldplay / Christmas Lights [2010, Indie Rock,Britpop, HDRip]
  • Owl City feat. Shawn Chrystopher / Alligator Sky [2011, Electronic, HDRip]
  • Lana Del Rey / Born To Die [2011, Indie Pop, HDRip]
  • Руставели / Контроль [2010, Rap, HDRip]
  • Сборник упражнений на мускулы тела / Muscle exercises // 84 из 84 [HDTV, от ...
  • Комплекс отжиманий (1-2 levels) / Chest workout "home version" (1-2 levels) ...
  • LeBron James 2012 Finals MVP [Баскетбол, 24.06.2012, HD, 720p, H.264, EN, H ...
  • Top 10 Plays of the 2012 NBA Finals [Баскетбол, 25.06.2012, HD, 720p, H.264 ...
  • Top 10 Dunks of the 2012 NBA Finals [Баскетбол, 25.06.2012, HD, 720p, H.264 ...
  • Информация
    Посетители, находящиеся в группе Гости, не могут оставлять комментарии к данной публикации.