вход на сайт

Имя пользователя :
Пароль :

Восстановление пароля Регистрация
Manami / Yellow Stop [2010, R&B, DVDRip]
Рейтинг:
(голосов: 1)



[img]{THEME}/images/logopost.png[/img]



Исполнитель: Manami
Оригинальное название: Yellow Stop
Год выпуска: 2010
Жанр: R&B

Описание: видеоклип Manam на песню Yellow Stop

Качество: DVDRip
Продолжительность: 00:03:52

Формат: AVI
Видео: MPEG4 Video 640x352 25.00fps [Stream 00]
Аудио: Dolby AC3 48000Hz stereo 320kbps [Stream 01]

Дополнительные данные:
▼Video
Format : xvid
Codec ID : xvid
Duration : 3mn 52s
Bit rate : 1 141 Kbps
Width: 640 pixels
Height : 352 pixels
Display aspect ratio : 16:9
Frame rate : 25.000 fps
Resolution : 24 bits
Bits/(Pixel*Frame) : 0.203
Stream size: 31.6 MiB (77%)

Audio
ID : 1
Format : AC-3
Format/Info: Audio Coding 3
Codec ID : 2000
Duration : 3mn 52s
Bit rate mode: Constant
Bit rate : 320 Kbps
Channel(s) : 2 channels
Channel positions: L R
Sampling rate: 48.0 KHz
Resolution : 16 bits
Stream size: 8.88 MiB (22%)
Alignment&nbs
89be46dfa431c72a5f7542ec8de4458f7982af15Manami / Yellow Stop [2010, R&B, DVDRip] Manami / Yellow Stop [2010, R&B, DVDRip] " />

Аплоадер: Админ, дата: 27-08-2010, 11:51, торрент скачан: 359 раз

Понравилась раздача? Посмотрите эти:
  • DJ Smash / Stop The Time [2013, Dance, House, Master]
  • Мужество / Wymyk (Грег Зглински, драма, 2011) [DVDRip, Любительский (одного ...
  • Айкын ft. Ника / Любовь слепая [2010, Pop, WebRip]
  • Wiz Khalifa Feat Juicy J Snoop Dogg And T-Pain / Black And Yellow [2011, ...
  • The Black Eyed Peas / The E.N.D. World Tour [2010, RnB, HDRip]
  • Mike Posner / Cooler Than Me [2010, R&B, DVDRip]
  • 3OH!3 / Double Vision [2009, R&B, WEB]
  • Елка / Прованс [2010, R&B, HDRip]
  • Quincy Jones & Akon / Strawberry Letter 23 [2010, R&B, HDRip]
  • Katy Perry / Firework [2010, Pop, MasterRip]
  • SpongeBob SquarePants: The Yellow Avenger
  • t.A.T.u. / Sparks [2010, Pop, TVRip]
  • Pitbull feat. The New Royales / Cant Stop Me Now [2010, Rap / Hip-Hop, DVDR ...
  • [PSP] SpongeBob Squarepants: The Yellow Avenger (2007/ENG/CSO)
  • Nelly / Just A Dream [2010, R&B, HDRip]
  • Промо-ролик России FIFA 2018 [Футбол/ Презентация/ DVDRip/ 2010]
  • Coldplay / Christmas Lights [2010, Indie Rock,Britpop, HDRip]
  • Game & Snoop Dogg / Purp & Yellow (SKEETOX Remix) [2011, Rap, WEBRip]
  • Owl City feat. Shawn Chrystopher / Alligator Sky [2011, Electronic, HDRip]
  • [NG] В глубинах Ледовитого океана / Deepsea Under The Pole (Документальный, ...
  • Хитрая ворона (Галина Баринова, короткометражный мультфильм, 1980) [DVDRip, ...
  • Желтый платочек счастья / The Yellow Handkerchief (Юдайан Прасад, мелодрама ...
  • Сборник упражнений на мускулы тела / Muscle exercises // 84 из 84 [HDTV, от ...
  • Путешествие Чарли / Next Stop for Charlie // Сезон 1, эпизоды с 1 по 10 (и ...
  • Fat Joe Ft. Lil Wayne, A$AP Rocky & French Montana/Yellow Tape [2012, Rap, ...
  • Информация
    Посетители, находящиеся в группе Гости, не могут оставлять комментарии к данной публикации.