вход на сайт

Имя пользователя :
Пароль :

Восстановление пароля Регистрация
Даниил Хармс — Избранное (читает Вениамин Смехов, сатира, 2006) [FLAC (image+.cue), lossless]
Рейтинг:
(голосов: 1)



[img]{THEME}/images/logopost.png[/img]



Даниил Хармс — Избранное (сатира, Вениамин Смехов) (2006)

Произведение: Даниил Хармс. Избранное (сборник)
Год написания: 1925
Год выпуска аудиокниги: 2006
Жанр: сатира, не детские произведения
Язык: русский
Автор оригинального произведения: Даниил Иванович Хармс (настоящая фамилия Ювачёв)
Текст читает: Вениамин Смехов

Оглавление:01. Однажды Андрей Васильевич...(3:32)
02. Теперь я расскажу, как я родился...(3:21)
03. Инкубаторный период...(0:33)
04. Вещь...(6:43)
05. Бобров...(0:51)
06. Отец и дочь...(2:39)
07. Одна муха ударила в лоб...(3:23)
08. Синфония...(1:28)
09. Кассирша...(4:28)
10. Судьба жены профессора...(4:03)
11. Юрий Владимирович Физкультурник...(3:25)
12. Победа Мышина...(3:59)
13. Когда я вижу человека...(1:22)
14. Григорьев (ударяя Семенова по морде)...(1:43)
15. Реабилитация...(1:50)
16. Есть ли что-нибудь на земле...(0:50)
17. Связь...(3:23)
18. Александр Иванович Дудкин...(1:53)
19. Утро...(7:43)
20. Крыса...(1:14)
21. Помеха...(3:08)
22. Два часа дня...(1:01)
23. Воспоминания одного мудрого старика...(7:11)
24. Смерть старичка...(1:08)
25. А. И. Введенскому ...(1:49)

Издательство: Союз
Продолжительность: 1:12:40 часа
Аудио кодек: FLAC
Битрейт аудио: lossless, ~500 kbps, 44100 Hz, VBR
EAC log ▼TextExact Audio Copy V0.99 prebeta 4 from 23. January 2008

Отчёт EAC об извлечении, выполненном 6. ноября 2008, 16:30

В.Смехов / Даниил Хармс. Избранное

Дисковод: ASUS DRW-1814BL Adapter: 0 ID: 0

Режим чтения : Скоростной

Коррекция смещения при чтении : 0
Способность читать области Lead-in и Lead-out : Нет
Заполнение пропущенных сэмплов тишиной : Да
Удаление блоков с тишиной в начале и конце : Нет
При вычислениях CRC использовались нулевые сэмплы : Да
Интерфейс : Встроенный Win32-интерфейс для Win NT/2000

Выходной формат : Monkeys Audio Lossless Encoder v3.99 DLL
Формат сэмплов : Normal Lossless Compression


TOC извлечённого CD

Трек | Старт | Длительность | Начальный сектор | Конечный сектор
---------------------------------------------------------------------
1 | 0:00.00 | 3:32.17 | 0 | 15916
2 | 3:32.17 | 3:21.08 | 15917 | 30999
3 | 6:53.25 | 0:32.65 | 31000 | 33464
4 | 7:26.15 | 6:42.63 | 33465 | 63677
5 | 14:09.03 | 0:51.21 | 63678 | 67523
6 | 15:00.24 | 2:38.57 | 67524 | 79430
7 | 17:39.06 | 3:23.17 | 79431 | 94672
8 | 21:02.23 | 1:27.59 | 94673 | 101256
14fc7ddfadfed15e6fbe0cbf0c157df27fed695eДаниил Хармс — Избранное (читает Вениамин Смехов, сатира, 2006) [FLAC (image+.cue), lossless] Даниил Хармс — Избранное (читает Вениамин Смехов, сатира, 2006) [FLAC (image+.cue), lossless] " />

Аплоадер: Админ, дата: 3-10-2010, 01:29, торрент скачан: 359 раз

Понравилась раздача? Посмотрите эти:
  • (2000) Lenny Kravitz / Greatest Hits (Rock, Funk) [FLAC (image+.cue), lossl ...
  • (2002) a-ha / Lifelines (Alternative Rock, Synth-pop ) [FLAC (image + .cue ...
  • (2012) Григорий Лепс / Полный вперёд (Шансон) [FLAC (image+.cue), Lossless ...
  • (дискография, 1983-2008) MADONNA (pop / dance) [WavPack (image+.cue) lossle ...
  • (2007) СТАС МИХАЙЛОВ - Лучшие песни (Шансон) [APE (image + .cue) lossless]
  • (2009) СЕРГЕЙ НАГОВИЦЫН / The Best Of - 2009 (Шансон) [FLAC (image+.cue) lo ...
  • (1994) Joy / Grand Collection (EuroDisco) [FLAC (image+.cue) lossless]
  • (2006) Батырхан Шукенов/ Отан Ана (Pop) [FLAC (image+.cue) lossless]
  • (2006) Tokio / puls 200 (Alternative Rock / Pop Rock) [FLAC (image+.cue) lo ...
  • (1981) Boney M / Christmas Album (UnRemaster) (Disco) [APE (image + .cue), ...
  • (2011) Within Temptation / The Unforgiving (Symphonic Gothic Metal) [FLAC ( ...
  • (2011) Blues Cousins / KGB Blues (Blues Rock) [FLAC (image+.cue), lossless] ...
  • (2011) АукцЫон / Юла (Rock) [APE (image+.cue), lossless]
  • (2006) УЛЫТАУ / ULYTAU - Жумыр-Кылыш / Jumyr-Kylysh (ethnic / folk metal / ...
  • ( 2001) Воскресение / Звездная коллекция (Rock) [FLAC (image+.cue) lossless ...
  • (1995) Юрий Шатунов / Ты помнишь... (Pop) [FLAC(image+.cue), lossless]
  • (1995) Yaki-Da / Pride (Pop, Eurodance) [FLAC (image+.сue), lossless]
  • (2000) Парк Горького (Gorky Park) / The Best (Glam Metal/Hard Rock) [FLAC ...
  • (2004) Ex-Сектор Газа / Огненный рай (Punk-Rock) [FLAC (image+.cue), lossle ...
  • (2008) Студия 80 / Придуманный Мир (Pop) [FLAC (image+.cue), lossless]
  • Информация
    Посетители, находящиеся в группе Гости, не могут оставлять комментарии к данной публикации.