вход на сайт

Имя пользователя :
Пароль :

Восстановление пароля Регистрация
Откровенно говоря - Последнее мгновение жизни (Набиль аль-Авады, Документальный, 2010) [SATRip]
Рейтинг:
(голосов: 1)



[img]{THEME}/images/logopost.png[/img]



Откровенно говоря - Последнее мгновение жизни


Год выпуска: 2010
Страна: Кувейт
Жанр: Документальный
Язык: Арабский
Субтитры:Русские
Перевод: Одноголосый

Режиссер: Аль-Ватан
В ролях: Набиль аль-Авады

Описание: Передача называется "Откровенно говоря", сегодня мы поговорим о том, что коснётся каждого из нас - "Последнее мгновение жизни"

Качество: SATRip
Продолжительность: 00:56:23

Формат: flv
Видео кодек: Flash Video 1
Аудио кодек: MPEG Audio Layer 3
Видео: 320x240(4:3), Format: H.263, Bit rate: 245 Kbps, Frame rate: 25.000 fps, Bits/(Pixel*Frame): 0.128, Stream size: 102 MiB (72%)
Аудио: 22050Hz stereo 8kbps, Bit rate: 90.6 Kbps, Stream size: 38.8 MiB (27%)





d49673228c849dc9f9b892d498412441a74a7229Откровенно говоря - Последнее мгновение жизни (Набиль аль-Авады, Документальный, 2010) [SATRip] Откровенно говоря - Последнее мгновение жизни (Набиль аль-Авады, Документальный, 2010) [SATRip] " />

Аплоадер: Админ, дата: 14-07-2010, 10:07, торрент скачан: 359 раз

Понравилась раздача? Посмотрите эти:
  • Осторожно, розыгрыш ! (Розыгрыш. Откровенно смешные) (Юмор, тв-шоу, 13.07.2 ...
  • Осторожно, розыгрыш ! (Розыгрыш. Откровенно смешные) (Юмор, тв-шоу, 20.07.2 ...
  • Последнее пристанище тамплиеров / Templars. The Last Stand (Документальный, ...
  • [Discovery] Создание синтетической жизни / Creating Synthetic Life (Докумен ...
  • [BBC] Мальчик, который уже жил / The Boy Who Lived Before (Документальный, ...
  • [ислам] Набиль Аль Авады. Цикл телепередач (Достоинство хиджаба и Благочест ...
  • Manami / Yellow Stop [2010, R&B, DVDRip]
  • (2012) Lirik / Мгновение (Single) (Rap) [MP3, 320 kbps /CBR]
  • (2013, Альбом) Lirik & Mr.V.S. / Мгновение (Rap,Hip-Hop) [MP3, 320 kbps/CBR ...
  • [Ислам] Набиль аль-Авади - Дорога в «Карбала» [SATRip, русский, 2008]
  • Мальчишник 2: Последнее искушение / Bachelor Party 2: The Last Temptation [ ...
  • 2012: Последнее Предсказание Майя / 2012: The Final Prophecy (National Geog ...
  • t.A.T.u. / Sparks [2010, Pop, TVRip]
  • [ислам] Набиль аль Авады. Личности и назидания, цикл лекций, назидания// 5( ...
  • [ИСЛАМ] Набиль Аль Авади. Смерть - последние мгновения жизни [SATRip, русск ...
  • Тимати, B.K., DJ M.E.G. / Welcome to St. Tropez. Фан Зона. Новая Волна 2011 ...
  • Я охранял Сталина: Секретные дневники Власика (Документальный, 2011) [SatRi ...
  • Тяжелая нефть (Документальный, 2011) [SatRip, Оригинал]
  • Высоцкий: Где-то в чужой незнакомой ночи... (Документальный, 2011) [SatRip, ...
  • [NG] В глубинах Ледовитого океана / Deepsea Under The Pole (Документальный, ...
  • [BBC] Рысь: Неуловимый охотник / Lynx: The Elusive Hunter (Документальный, ...
  • [ислам]Набиль аль Авады . Истории о пророках (а с.), повествование, история ...
  • [ислам] Набиль аль Авады - Истории о пророках (а с.), повествование, истори ...
  • Мгновение любви / Here (Браден Кинг, Драма, мелодрама, приключения, 2011) [ ...
  • [Ислам] Набиль аль-Авады - Великие личности и назидания [DVDRip, русский, 2 ...
  • Информация
    Посетители, находящиеся в группе Гости, не могут оставлять комментарии к данной публикации.