вход на сайт

Имя пользователя :
Пароль :

Восстановление пароля Регистрация
[Христианство] Валаам. Ступень к небу [DVDRip, русский, 2009]
Рейтинг:
(голосов: 1)



[img]{THEME}/images/logopost.png[/img]



Валаам. Ступень к небу

Страна: Россия
Автор и/или Ведущий: -
Конфессия: Христианство
Производство: Фильм создан трудами братии Валаамского монастыря
Год выпуска: 2009

Перевод: не требуется
Озвучка: -
Субтитры: нет

Описание: «Валаам - ступень к небу» -фильм о жизни Валаамского монастыря сегодня; о том, почему люди уходят из мира в монастырь; о том, чем монахи живут и ради чего они живут.
Фильм снят в зимнее время года, когда с острова уезжают туристы и многочисленные паломники, когда монахов уже никто и ничего не отвлекает от их уединенной жизни...
Зимний Валаам, суровая Ладога, песнопение братского хора Валаамского монастыря, ступень к небу...
По благословению Преосвященнейшего Панкрания, епископа Троицкого, игумена Спасо-Преображенского Валаамского монастыря.

Качество: DVDRip
Продолжительность: 01:17:00

Формат: AVI
Видео: 838 Кбит/сек, 1024x576 (16:9), 25.000 кадр/сек, H264, Advanced Video Codec - [email protected]
Аудио: 192 Кбит/сек, MP3 (LAME3.97), 48.0 КГц, 2 канала

MediaInfo ▼
General
Complete name : Валаам. Ступень к небу (H264,DVDRip).avi
Format : AVI
Format/Info : Audio Video Interleave
Format profile : OpenDML
File size : 1.33 GiB
Duration : 1h 17mn
Overall bit rate : 916 Kbps
Writing application : Lavf51.12.1
Video #0
ID : 0
Format : AVC
Format/Info : Advanced Video Codec
Format profile : [email protected]
Format settings, CABAC : No
Format settings, ReFrames : 1 frame
Codec ID : H264
Duration : 3h 27mn
Bit rate : 838 Kbps
Width : 1 024 pixels
Height : 576 pixels
Display aspect ratio : 16:9
Frame rate : 25.000 fps
Resolution : 24 bits
Colorimetry : 4:2:0
Scan type : Progressive
Bits/(Pixel*Frame) : 0.057
Stream size : 1.22 GiB (92%)
Audio #1
ID : 1
Format : MPEG Audio
Format version : Version 1
Format profile : Layer 3
Format_Settings_Mode : Joint stereo / MS Stereo
Codec ID : 55
Codec ID/Hint : MP3
Duration : 1h 17mn
Bit rate mode : Constant
Bit rate : 192 Kbps
Channel(s) : 2 channels
Sampling rate : 48.0 KHz
Resolution : 16 bits
Stream size : 107 MiB (8%)
Alignment : Aligned on interleaves
Interleave, duration : 24 ms (0.60 video frame)
Writing library : LAME3.97

см. также:
Оригинал DVD5
О, дивный остров Валаам


d835427ab27f52d22df1c7a828a11d039b5fbf03[Христианство] Валаам. Ступень к небу [DVDRip, русский, 2009] [Христианство] Валаам. Ступень к небу [DVDRip, русский, 2009] " />

Аплоадер: Админ, дата: 23-12-2010, 13:07, торрент скачан: 359 раз

Понравилась раздача? Посмотрите эти:
  • Salaam Remi feat. Akon / One In The Chamber [2013, RnB, MasterRip]
  • Eric Saade / Popular [2011, Pop, Master]
  • Жорабеков Понти / Жылама тек жылама [2013, Pop, WebRip]
  • Enrique Iglesias / Hero [2009, Pop, HDRip]
  • Видеообзор Metro Last Light от PlayGround (17.05.2013., WEB-DL HD/720p, MP4 ...
  • [EN] Команда: На пути Аллаха / Takiye: Allah yolunda (2010, Бен Вербонг, тр ...
  • Молодежный чемпионат мира 2012 (U-20). Четвертьфинал: Россия - Чехия [02.01 ...
  • Чемпионат Испании 2011-12 / 36-й тур / Реал Мадрид - Севилья / НТВ+ [Футбол ...
  • Чемпионат Европы 2012 / Группа D / 1-й тур / Украина - Швеция / Спорт 1 [11 ...
  • 3OH!3 / Double Vision [2009, R&B, WEB]
  • Елка / Прованс [2010, R&B, HDRip]
  • О, дивный остров Валаам (А. Павлович, Православие, Документальн​ый, 2002 г. ...
  • Собрание программ школы навыков ДЭИР (1-4 ступень) [DVD+ doc, pdf]
  • (2004) Хор братии Валаамского монастыря / Записи пения (Православные песноп ...
  • [Христианство] Дивен Бог во святых Его. Николай II [DVDRip, русский, 2002]
  • [Христианство] Царь Давид. Псалмы Давидовы (Псалтирь). Хор братии Валаамско ...
  • Nelly / Just A Dream [2010, R&B, HDRip]
  • [Христианство] Житие преподобного Сергия Радонежского (жития святых) [DVDRi ...
  • Неделя в NBA с В.Гомельским / НТВ+ [28.06.2011, SD, XviD, RU, SAT]
  • Вскрытие инопланетянина/Alien Autopsy (Джонни Кэмпбелл, Комедия, фантастика ...
  • Machete / Нежность [2011, R&B, HDRip]
  • Чемпионат Европы 2012 / Группа B / 1-й тур / Германия - Португалия / Спорт ...
  • Товарищеский матч 2012 / АмаЗулу (ЮАР) - Манчестер Юнайтед (Англия) / MU TV ...
  • Олимпиада 2012 / Женщины, Мужчины / Плавание / Квалификация / НТВ+ [30.07.2 ...
  • Тысячный мужчина / The Thousandth Man // Сезон 1, Эпизоды с 1 по 8 (из 8) ( ...
  • Информация
    Посетители, находящиеся в группе Гости, не могут оставлять комментарии к данной публикации.