вход на сайт

Имя пользователя :
Пароль :

Восстановление пароля Регистрация
Гениальный ребенок: Новогодний / Празднуя волшебство Рождества (Дэннис Федорук, Сборник учебных видео для детей, 2006) [DVDRip, Профессиональный (одноголосый)]
Рейтинг:
(голосов: 1)



[img]{THEME}/images/logopost.png[/img]



Гениальный ребенок: Новогодний / Празднуя волшебство Рождества

Детям будет нравиться смеяться и петь рождественские песни

Год выпуска: 2006
Страна: США
Производство: Baby Einstein Company
Жанр: Сборник учебных видео для детей

Режиссёр: Дэннис Федорук
В ролях: Дети

Перевод: Профессиональный (одноголосый)
Субтитры:Отсутствуют

Описание
▼"3вените, колокольчики" - это яркое, музыкальное путешествие, которое позволяет малышам изучать все образы и звуки рождественского времени года.

"Традиция праздника"
Отмечайте этот сезон со специальным дополнением к коллекции образовательных и развлекательных программ "Гениальный ребенок". Как и другие наименования "Гениального ребенка" - "Новогодний" включает детей различной национальности, живые картинки и спокойное, дружелюбное повествование, так же как и подходящую для детей, радостную музыку и песни!

"Создаю веселое настроение"
Пой с нами знакомые рождественские песни, например:
- Звените, колокольчики
- Звените, колокольчики для убаюкивания
- Снеговик Фрости
- Щелкунчик
- Езда на санях

"Смеясь, все время"
Будь веселым, потому что мы:
- Посетим самую сладкую волшебную фабрику
- Поездим на санках
- Поможем сделать снеговика
- Испечем праздничные печенья
- и многое другое

Детям будет нравиться смеяться и петь рождественские песни. Ярко раскрашенные предметы помогают развить когнитивные навыки и пространственное мышление. Малыши будут получать удовольствие при посещении конфетной фабрики, чтобы увидеть как делается сладкая радость.



Тех. данные
Качество: DVDRip
Продолжительность: 00:29:06 час.

Формат: AVI
Видео кодек: XviD
Аудио кодек: AC3
Видео: 640x480 (1.33:1), 25 fps, XviD build 46 1297 kbps avg, 0.17 bit/pixel
Аудио: 48 kHz, AC3 Dolby Digital, 128 kbps avg

MediaInfo ▼
Text
Общее
Полное имя : F:Гениальный ребенок. Новогодний.avi
Формат : AVI
Формат/Информация : Audio Video Interleave
Размер файла : 299 Мбайт
Продолжительность : 29 м.
Общий поток : 1437 Кбит/сек
Название фильма : Гениальный ребенок. Новогодний.Title2.DVDRip
Программа кодирования : Lavf52.17.0
Формат оригинала/Имя : Гениальный ребенок. Новогодний

Видео
Идентификатор : 0
Формат : MPEG-4 Visual
Профиль формата : [email protected]
Параметр BVOP формата : Нет
Параметр QPel формата : Нет
Параметр GMC формата : Без точки перехода
Параметр матрицы формата : Default (H.263)
Идентификатор кодека : XVID
Идентификатор кодека/Подсказка : XviD
Продолжительность : 29 м.
Битрейт : 1298 Кбит/сек
Ширина : 640 пикселей
Высота : 480 пикселей
Соотношение сторон : 4:3
Частота кадров : 25,000 кадров/сек
Цветовое пространство : YUV
Субдискретизация насыщенности : 4:2:0
Битовая глубина : 8 бит
Тип развёртки : Прогрессивная
Метод сжатия : С потерями
Бит/(Пиксели*Кадры) : 0.169
Размер потока : 270 Мбайт (90%)
Библиотека кодирования : XviD 1.1.2 (UTC 2006-11-01)

Аудио
Идентификатор : 1
Формат : AC-3
Формат/Информация : Audio Coding 3
Расширение режима : CM (complete main)
Параметр Endianness формата : Big
Идентификатор кодека : 2000
Продолжительность : 29 м.
Вид битрейта : Постоянный
Битрейт : 128 Кбит/сек
Каналы : 2 канала
Расположение каналов : Front: L R
Частота : 48,0 КГц
Битовая глубина : 16 бит
Метод сжатия : С потерями
Размер потока : 26,6 Мбайт (9%)
Выравнивание : Соединение по промежуткам
Продолжительность промежутка : 32 мс. (0,80 видеокадр)|Cтол заказов| Наши раздачи| Набор в группу| Сказать спасибо|


0672f467f4eef681ad9650deb0739c45ee673ecfГениальный ребенок: Новогодний / Празднуя волшебство Рождества (Дэннис Федорук, Сборник учебных видео для детей, 2006) [DVDRip, Профессиональный (одноголосый)] Гениальный ребенок: Новогодний / Празднуя волшебство Рождества (Дэннис Федорук, Сборник учебных видео для детей, 2006) [DVDRip, Профессиональный (одноголосый)] " />

Аплоадер: Админ, дата: 30-12-2012, 10:57, торрент скачан: 359 раз

Понравилась раздача? Посмотрите эти:
  • Одноклассники 2 / Grown Ups 2 (Деннис Дуган, Комедия, 2013) [BDRip, Професс ...
  • Мужчина: Инструкция по применению / Mens Manual (Ли Вон Сок, Комедия, 2013) ...
  • Слежка / The Letter (Джей Ананья, Триллер, драма, 2012) [DVDRip, Профессион ...
  • Глушь / Resurrection County (Матт Зеттел, Ужасы,триллер, 2008) [DVDRip, Про ...
  • Двенадцать бедствий на Рождество / The 12 Disasters of Christmas (Стивен Р. ...
  • Жил-был тигр / Ek Tha Tiger (Кабир Кхан, боевик, триллер , 2012) [ HDRip, ...
  • Легенда о МорДу / The Legend of MorDu (Брайан Ларсен, Короткометражный, ска ...
  • Путешествие на дно моря / Voyage to the Bottom of the Sea (Ирвин Аллен / I ...
  • Кажется, я люблю свою жену / I Think I Love My Wife (Крис Рок, Драма, мелод ...
  • К-9: Рождественские приключения / K9 Adventures: A Christmas Tale (Бен Гурл ...
  • К-9: Рождественские приключения / K9 Adventures: A Christmas Tale (Бен Гурл ...
  • Покорить высоту / Take It to the Limit (Сэм Кит / Sam Kieth, семейный, 2000 ...
  • Светлячок. Воссоединение Коричневых плащей к 10 годовщине / Firefly 10th An ...
  • А что насчет тебя? / How About You (Энтони Бирн, Драма, комедия, 2007) [DVD ...
  • Гениальный ребенок. Животные. [2009, DVDRip, AVI]
  • Гениальный ребенок: Цвета и формы / Brainy Baby (Дэннис Федорук, детский-о ...
  • Гениальный ребенок: Рисование / Brainy Baby: Art (Дэннис Федорук, детский о ...
  • Гениальный ребенок: Музыка / Brainy Baby: Music (Дэннис Федорук, детский об ...
  • В лесу / The Forest (Шан Серафин, ужасы, триллер , 2011) [SATRip, Профессио ...
  • Pitbull / Bon Bon [2010, Pop, HDRip]
  • Гениальный папа / Father of Invention (Трент Купер, Драма, комедия, 2010) [ ...
  • Глаз шторма / The Eye of the Storm (Фред Скеписи, Драма, 2011) [HDRip, Проф ...
  • Schiller / Mitternacht [2010, Ambient, WebRip]
  • Человек из банки (Иван Кульнев, Комедия, 2012) [DVDRip, Не требуется]
  • Сдохни, Джон Такер / John Tucker Must Die (Бетти Томас, мелодрама, комедия, ...
  • Информация
    Посетители, находящиеся в группе Гости, не могут оставлять комментарии к данной публикации.