вход на сайт

Имя пользователя :
Пароль :

Восстановление пароля Регистрация
Мои друзья Тигруля и Винни: Разноцветные истории / My Friends Tigger & Pooh: Chasing Poohs Rainbow (Дэвид Хартман, Мультсериал, семейный, 2010) [DVDRip, Профессиональный (полное дублирование)]
Рейтинг:
(голосов: 1)



[img]{THEME}/images/logopost.png[/img]



Мои друзья Тигруля и Винни: Разноцветные истории / My Friends Tigger & Pooh: Chasing Poohs Rainbow

Год выпуска: 2011
Страна: США
Производство: Walt Disney Television Animation
Жанр: Мультсериал, семейный

Режиссёр: Дэвид Хартман
В ролях: Кимберли Берг, Джим Каммингс, Хлоя Моретц, Ди Брэдли Бейкер, Трэвис Оутс, Кен Сэнсом, Макс Буркхолдер, Оливер Диллон, Питер Каллен, Кэт Сауси

Перевод: Профессиональный (полное дублирование)
Субтитры: Отсутствуют


Описание: Раскрась свой мир с друзьями! Друзья из Волшебного Леса познают сказочный мир красок и фантазии. Помоги Винни и Тигруле в поисках горшочка с самым вкусным медом у подножия радуги. Присоединяйся к суперследопытам в расследовании таинственного исчезновения цветных мелков Хрюни, и узнай, какие удивительные цвета получаются, если смешивать краски!

6.70 4.705



"Премьеры:" ▼
премьера (РФ) - 12 августа 2010
релиз на DVD - 9 ноября 2010


"Список серий:" ▼
1. Тыквенная песенка
2. Синий-синий Винни Пух
3. Винни и радуга
4. Фиолетовая тайна
5. Здравствуй, Холли, и прощай
6. Дело пропавших мелков


"Media Info:" ▼
General
Complete name : E:МультыНовые приключения Винни ПухаРазноцветные историиVinni.i.raduga.2010.XviD.DVDRip.Kinozal.TV.avi
Format : AVI
Format/Info : Audio Video Interleave
File size : 316 MiB
Duration : 23mn 6s
Overall bit rate : 1 912 Kbps
Video
ID : 0
Format : MPEG-4 Visual
Format profile : [email protected]
Format settings, BVOP : No
Format settings, QPel : No
Format settings, GMC : No warppoints
Format settings, Matrix : Default (H.263)
Codec ID : XVID
Codec ID/Hint : XviD
Duration : 23mn 6s
Bit rate : 1 709 Kbps
Width : 704 pixels
Height : 528 pixels
Display aspect ratio : 4:3
Frame rate : 25.000 fps
Resolution : 8 bits
Colorimetry : 4:2:0
Scan type : Progressive
Bits/(Pixel*Frame) : 0.184
Stream size : 283 MiB (89%)
Writing library : XviD 1.1.2 (UTC 2006-11-01)
Audio
ID : 1
Format : AC-3
Format/Info : Audio Coding 3
Format profile : Dolby Digital
Codec ID : 2000
Duration : 23mn 6s
Bit rate mode : Constant
Bit rate : 192 Kbps
Channel(s) : 2 channels
Channel positions : L R
Sampling rate : 48.0 KHz
Stream size : 31.7 MiB (10%)
Alignment : Aligned on interleaves
Interleave, duration : 32 ms (0.80 video frame)


Качество: DVDRip
Продолжительность: 00:23:00

Формат: AVI
Видео кодек: XviD
Аудио кодек: MP3
Видео: 704x528 (1.33:1), 25 fps, XviD build 50 ~1900 kbps avg, 0.20 bit/pixel
Аудио: 48 kHz, AC3 Dolby Digital, 2/0 (L,R) ch, ~192.00 kbps avg



96d95a7e31a7567c527ce021300da6ecd151e930Мои друзья Тигруля и Винни: Разноцветные истории / My Friends Tigger & Pooh: Chasing Poohs Rainbow (Дэвид Хартман, Мультсериал, семейный, 2010) [DVDRip, Профессиональный (полное дублирование)] Мои друзья Тигруля и Винни: Разноцветные истории / My Friends Tigger & Pooh: Chasing Poohs Rainbow (Дэвид Хартман, Мультсериал, семейный, 2010) [DVDRip, Профессиональный (полное дублирование)] " />

Аплоадер: Админ, дата: 20-03-2011, 20:33, торрент скачан: 359 раз

Понравилась раздача? Посмотрите эти:
  • Приключения Винни Пуха / The Many Adventures of Winnie the Pooh (Джон Лоунс ...
  • Приключения Винни Пуха / The Many Adventures of Winnie the Pooh (Джон Лоунс ...
  • Винни и Слонотоп / Poohs Heffalump Movie (Фрэнк Ниссен, Мультфильм, 2005) [ ...
  • Великое путешествие Пуха: В поисках Кристофера Робина / Poohs Grand Adventu ...
  • Приключения Винни Пуха 2 сезон / The Many Adventures of Winnie the Pooh[SAT ...
  • Приключения Винни Пуха 3 сезон / The Many Adventures of Winnie the Pooh[SAT ...
  • Приключения Винни Пуха 4 сезон / The Many Adventures of Winnie the Pooh[SAT ...
  • Мои друзья Тигруля и Винни / My Friends Tigger and Pooh (Дэвид Хартманн, До ...
  • Приключения Винни Пуха / The Many Adventures of Winnie the Pooh [1977 / мул ...
  • Винни-Пух: Весенние денёчки с малышом Ру / Winnie the Pooh: Springtime with ...
  • Мои друзья Тигруля и Винни: Лучшие друзья / My Friends Tigger and Pooh: eve ...
  • Мои друзья Тигруля и Винни: Сказки на ночь / My Friends Tigger & Pooh: ...
  • Винни Пух: Фигуры и Размеры (Дэвид Боссет / Развивающий, Мультфильм, Семейн ...
  • Мои Друзья Тигруля и Винни: Супер Пупер Сыщики / My Friends Tigger & Po ...
  • Мои друзья Тигруля и Винни: Куда Пропали Пчёлы / My Friends Tigger & Pooh: ...
  • Винни Пух: Весенние денёчки с малышом Ру / Winnie The Pooh: Springtime With ...
  • Медвежонок Винни и его друзья / Winnie the Pooh (Стивен Дж. Андерсон, Дон Х ...
  • Медвежонок Винни и его друзья / Winnie the Pooh (Стивен Дж. Андерсон, Дон Х ...
  • Винни Пух и День рождения Иа / Winnie the Pooh and a Day for Eeyore (Рик Ре ...
  • Медвежонок Винни и его друзья / Winnie the Pooh (Стивен Дж. Андерсон, Дон Х ...
  • Информация
    Посетители, находящиеся в группе Гости, не могут оставлять комментарии к данной публикации.