вход на сайт

Имя пользователя :
Пароль :

Восстановление пароля Регистрация
Сборник упражнений на мускулы тела / Muscle exercises // 84 из 84 [HDTV, отсутствует]
Рейтинг:
(голосов: 1)



[img]{THEME}/images/logopost.png[/img]



Сборник упражнений на мускулы тела / Muscle exercises

Страна: США
Автор: Неизвестно
Жанр: Обучающее видео.
Производство: www.passion4profession.net
Год выпуска: 2010-2011

Перевод: отсутствует

Описание:
Мною было собранно видео по бодибилдингу от известного американского сайта Passion4Profession. Видео разделены на категории в зависимости от выбранного участка тела с его мышцами.

Продолжительность: ----
Качество: HDTVRip, WEBRip

Формат: MPEG-4
Видео кодек: AVC
Аудио кодек: AAC
Свойства видео:810 Kbps, 1280x720 p., 29.970 fps
Свойства аудио: 51.7 Kbps, 44.1 KHz, Lossy



"Тех. характеристики" ▼
Video #1
ID : 1
Format : AVC
Format/Info : Advanced Video Codec
Format profile : [email protected]
Format settings, CABAC : Yes
Format settings, ReFrames : 1 frame
Format settings, GOP : M=1, N=30
Codec ID : avc1
Codec ID/Info : Advanced Video Coding
Duration : 47s 9ms
Bit rate mode : Variable
Bit rate : 871 Kbps
Maximum bit rate : 1 757 Kbps
Width : 1 280 pixels
Height : 720 pixels
Display aspect ratio : 16:9
Frame rate mode : Variable
Frame rate : 29.952 fps
Minimum frame rate : 29.412 fps
Maximum frame rate : 200.000 fps
Color space : YUV
Chroma subsampling : 4:2:0
Bit depth : 8 bits
Scan type : Progressive
Bits/(Pixel*Frame) : 0.032
Stream size : 4.88 MiB
Tagged date : UTC 2010-10-15 15:05:35
Audio #2
ID : 2
Format : AAC
Format/Info : Advanced Audio Codec
Format profile : LC
Codec ID : 40
Duration : 46s 952ms
Bit rate mode : Variable
Bit rate : 35.9 Kbps
Maximum bit rate : 178 Kbps
Channel(s) : 2 channels
Channel positions : Front: L R
Sampling rate : 44.1 KHz
Compression mode : Lossy
Stream size : 206 KiB (5%)
Title : (C) 2007 Google Inc. v08.13.2007.
Encoded date : UTC 2010-10-15 15:05:34
Tagged date : UTC 2010-10-15 15:05:35





a8a8832511394e2b3876967a7ebdd188b12cace3Сборник упражнений на мускулы тела / Muscle exercises // 84 из 84 [HDTV, отсутствует] Сборник упражнений на мускулы тела / Muscle exercises // 84 из 84 [HDTV, отсутствует] " />

Аплоадер: Админ, дата: 13-06-2012, 22:25, торрент скачан: 359 раз

Понравилась раздача? Посмотрите эти:
  • Rihanna / What Now [2013, R&B, HDTV]
  • NBA 2013-2014 / RS / Highlights [Баскетбол, 04.11.2013, WEB-DL HD/720p, MP4 ...
  • NBA Playoffs 2013 / Highlights Playoff Edition [Баскетбол, 05.05.2013, WEB ...
  • NBA Playoffs 2013 / Highlights Playoff Edition [Баскетбол, 06.05.2013, WEB ...
  • NBA Playoffs 2013 / Highlights Playoff Edition [Баскетбол, 07.05.2013, WEB ...
  • NBA Playoffs 2013 / Highlights Playoff Edition [Баскетбол, 08.05.2013, WEB ...
  • NBA Playoffs 2013 / Highlights Playoff Edition [Баскетбол, 11.05.2013, WEB ...
  • WWE Extreme Rules + Preshow [19.05.2013, Рестлинг, WEB-DL-HDTV/720p, MP4-MK ...
  • [EN]Мускулы и Фитнесс - Система тренировок/Muscle & Fitness Training Sy ...
  • Quincy Jones & Akon / Strawberry Letter 23 [2010, R&B, HDRip]
  • Prodigy (of Mobb Deep) / Pretty Thug [2012, Rap, WEBRip]
  • Coldplay / Christmas Lights [2010, Indie Rock,Britpop, HDRip]
  • Lana Del Rey / Born To Die [2011, Indie Pop, HDRip]
  • Madonna / Girl Gone Wild [2012, Pop, HDTV]
  • 12-ти минутный комплекс отжиманий / 12 Min Abs Workout Push up (2010, Фитне ...
  • Комплекс отжиманий (1-2 levels) / Chest workout "home version" (1-2 levels) ...
  • LeBron James 2012 Finals MVP [Баскетбол, 24.06.2012, HD, 720p, H.264, EN, H ...
  • Top 10 Plays of the 2012 NBA Finals [Баскетбол, 25.06.2012, HD, 720p, H.264 ...
  • Top 10 Dunks of the 2012 NBA Finals [Баскетбол, 25.06.2012, HD, 720p, H.264 ...
  • Чемпионат Европы 2012 / TOP 10 Goals & Best Moments [Футбол, 04.07.2012, HD ...
  • Информация
    Посетители, находящиеся в группе Гости, не могут оставлять комментарии к данной публикации.