вход на сайт

Имя пользователя :
Пароль :

Восстановление пароля Регистрация
12-ти минутный комплекс отжиманий / 12 Min Abs Workout Push up (2010, Фитнес) [WEBRip, отсутствует]
Рейтинг:
(голосов: 1)



[img]{THEME}/images/logopost.png[/img]



12-ти минутный комплекс отжиманий / 12 Min Abs Workout Push up

Автор: Неизвестно
Жанр: Обучающее видео.
Производство: www.passion4profession.net
Год выпуска: 2010
Язык: Французкий

Описание:
Комплекс эффективных упражнения для развития грудных мышц.


Общая продолжительность: 00:12:00

Формат: FLV
Видео кодек: AVC
Аудио кодек: AAC
Видео свойства: 276 Kbps, 640x480 p., 25.000fps
Аудио свойства: 128 Kbps, 44.1 KHz


"Тех. характеристики" ▼
Video
Format : AVC
Format/Info : Advanced Video Codec
Format profile : [email protected]
Format settings, CABAC : Yes
Format settings, ReFrames : 3 frames
Format settings, GOP : M=1, N=50
Codec ID : 7
Duration : 12mn 0s
Bit rate : 276 Kbps
Width : 640 pixels
Height : 480 pixels
Display aspect ratio : 4:3
Frame rate mode : Constant
Frame rate : 25.000 fps
Color space : YUV
Chroma subsampling : 4:2:0
Bit depth : 8 bits
Scan type : Progressive
Bits/(Pixel*Frame) : 0.036
Stream size : 23.7 MiB (67%)
Audio
Format : AAC
Format/Info : Advanced Audio Codec
Format profile : LC
Codec ID : 10
Duration : 12mn 0s
Bit rate : 128 Kbps
Channel(s) : 2 channels
Channel positions : Front: L R
Sampling rate : 44.1 KHz
Compression mode : Lossy
Stream size : 11.0 MiB (31%)





6ba44b2b857935105cdd74df11fb008a769e742812-ти минутный комплекс отжиманий / 12 Min Abs Workout Push up (2010, Фитнес) [WEBRip, отсутствует] 12-ти минутный комплекс отжиманий / 12 Min Abs Workout Push up (2010, Фитнес) [WEBRip, отсутствует] " />

Аплоадер: Админ, дата: 13-06-2012, 20:13, торрент скачан: 359 раз

Понравилась раздача? Посмотрите эти:
  • Юра Шатунов / Тет-а-тет[2013, Pop, WEBRip]
  • DJ Benny & Сережа Местный / Под дождём [2013, Rap, Hip-Hop, WebRip]
  • Битва экстрасенсов // Сезон 14. Спец. выпуск 2 (Паранормальное шоу, 19.01.2 ...
  • Runtastic Push-Ups PRO v1.5.1 (2012) Английский [Android]
  • Жорабеков Понти / Көзімнен жас тамады сені қимай [2013, Pop, WebRip]
  • Жорабеков Понти / Жылама тек жылама [2013, Pop, WebRip]
  • Каррагер: документальный фильм / Carragher: The documentary / LFC TV [Футбо ...
  • Evanescence / Lost in Paradise [2013, Gothic Metal, WEBRip]
  • Mystikal feat. Lil Wayne & Birdman / Original [2012, Rap, Hip-Hop, WEBRip]
  • Kat Deluna ft. Akon / Push Push (.. Mo Remix ..) [2010, R&B, WebRip]
  • Prodigy (of Mobb Deep) / Pretty Thug [2012, Rap, WEBRip]
  • Плоский живот для чайников/Basic Ab Workout for Dummies (Спорт, фитнес, та ...
  • Шестинедельный курс отжиманий (Спорт) [2011, PDF]
  • 8 минут эффективных упражнений для пресса (4 уровня) / 8 Min Abs Workout, h ...
  • [EN] Рафф Райдерс - Упражнения на турнике. Уличный фитнес / Ruff Ryders - T ...
  • Tanir (Da Gudda Jazz) / Шестиколесный Велосипед [2011, Rap, WEBRip]
  • [ENG] Calisthenics Kingz. Мощь отжиманий - сила человека / Calisthenics Kin ...
  • Сборник упражнений на мускулы тела / Muscle exercises // 84 из 84 [HDTV, от ...
  • Комплекс отжиманий (1-2 levels) / Chest workout "home version" (1-2 levels) ...
  • Audio Push / Wassup [2012, Rap, Hip-Hop, WEBRip]
  • Информация
    Посетители, находящиеся в группе Гости, не могут оставлять комментарии к данной публикации.