вход на сайт

Имя пользователя :
Пароль :

Восстановление пароля Регистрация
Лучшие сексуальные танцы планеты / The best sexual dances of a planet (Танцы, 2012) [HDTVRip, не требуется]
Рейтинг:
(голосов: 1)



[img]{THEME}/images/logopost.png[/img]



Лучшие сексуальные танцы планеты / The best sexual dances of a planet

Год выпуска: 2012
Страна: Италия, Испания, США
Жанр: Танцы

Перевод: Не требуется
Субтитры: Отсутствуют

Описание: Красивые, загорелые девушки танцуют под самую позитивную музыку планеты, двигая прекрасными точками своего тела. Завораживающее представление сексуальных девушек из разных точек нашей планеты Земля. Самые известные и посещаемые живописные клубы планеты показывают вам куда ехать в отпуск в этом году.


Качество: HDTVRip
Продолжительность: 01:29:32

Формат: WMV
Видео кодек: WMVx
Аудио кодек: Windows Media Audio

Видео: Windows Media Video 9, 720x400, 25fps, 1536kbps
Аудио: Windows Media Audio, 44100Hz, 2ch,192kbps

Подробная информация ▼Общее
Полное имя : Формат : Windows Media
Размер файла : 1,09 Гбайт
Продолжительность : 1 ч. 29 м.
Режим общего битрейта : Постоянный
Общий поток : 1746 Кбит/сек
Максимальный общий битрейт : 1745 Кбит/сек
Название фильма : The best sexual dances of a planet
Дата кодирования : UTC 2012-02-28 14:12:08.718
Видео
Идентификатор : 2
Формат : VC-1
Профиль формата : [email protected]
Идентификатор кодека : WMV3
Идентификатор кодека/Информация : Windows Media Video 9
Идентификатор кодека/Подсказка : WMV3
Описание кодека : Windows Media Video 9
Продолжительность : 1 ч. 29 м.
Вид битрейта : Постоянный
Битрейт : 1536 Кбит/сек
Ширина : 720 пикс.
Высота : 400 пикс.
Соотношение сторон : 16:9
Частота кадров : 25,000 кадр/сек
Битовая глубина : 8 бит
Тип развёртки : Прогрессивная
Метод сжатия : С потерями
Бит/(Пиксели*Кадры) : 0.213
Размер потока : 984 Мбайт (88%)
Аудио
Идентификатор : 1
Формат : WMA
Версия формата : Version 2
Идентификатор кодека : 161
Идентификатор кодека/Информация : Windows Media Audio
Описание кодека : Windows Media Audio 9.1 - 192 kbps, 44 kHz, stereo (A/V) 1-pass CBR
Продолжительность : 1 ч. 29 м.
Вид битрейта : Постоянный
Битрейт : 192 Кбит/сек
Каналы : 2 канала
Частота : 44,1 КГц
Битовая глубина : 16 бит
Размер потока : 123 Мбайт (11%)


0d641204a6ecd1a7b0e9e98923a190e97667ecb7Лучшие сексуальные танцы планеты / The best sexual dances of a planet (Танцы, 2012) [HDTVRip, не требуется] Лучшие сексуальные танцы планеты / The best sexual dances of a planet (Танцы, 2012) [HDTVRip, не требуется] " />

Аплоадер: Админ, дата: 13-03-2012, 21:15, торрент скачан: 359 раз

Понравилась раздача? Посмотрите эти:
  • Hurts / Somebody to Die For [2013, Pop, WEBRip]
  • Герои / Закаты алые [2012, Pop, WebRip]
  • Ariana Grande - ft. Mac Miller / The Way [2013, Pop, WEB-DLRip 1080p]
  • [BBC] Земля: Сила планеты - Атмосфера / Earth: The Power of the planet - At ...
  • Секс и ничего лишнего / My Awkward Sexual Adventure (Шон Гэррити, Комедия, ...
  • Кунг-Фу Хип-Хоп 2 / Kung-Fu Hip-Hop 2 (Bowie Lau Bo Yin / Боуи Лау Бо Юн, м ...
  • Насекомое с другой планеты. Богомол / Insect from another planet. Mantis (Д ...
  • 2011 NBA All-Star Weekend - Sprite Slam Dunk Contest/19.02.11 [2011, Баскет ...
  • E-40 & Too Short Dump Truck Feat. Travis Porter/ Function Music [2012, Rap| ...
  • Stromae mc Zali & DJ Dima molotov / Алена даст [2010, Электронная музыка, W ...
  • Грязные танцы 2: Гаванские ночи / Dirty Dancing: Havana Nights (Гай Ферленд ...
  • Братц: Любовь и танцы / Bratz: Love and dances (Фил Вайнштайн, Детский, мул ...
  • Гарри Топор / Танцы с покойниками [2011, Rap, HDRip]
  • [Discovery] Внутри планеты Земля / Inside Planet Earth (документалый, 2009) ...
  • Сацура & St1m / Бой с тенью [2011, Rap, WebRip]
  • Саша Пархоменко / Не Казанова [2012, Rap/Hip-Hop, WebRip]
  • Гарри Топор / Каин [2012, Rap, WebRip]
  • Twin Vi / Потерянное поколение [2012, Rap, WebRip]
  • Первопрестольная (Документальный, 2012) [SatRip, Не требуется]
  • Лига Чемпионов 2012-13 / 3-й тур / Группа D / Боруссия Д (Германия) - Реал ...
  • Информация
    Посетители, находящиеся в группе Гости, не могут оставлять комментарии к данной публикации.