вход на сайт

Имя пользователя :
Пароль :

Восстановление пароля Регистрация
Мульт-Салют. 15 ч. из 30: Первый урок/Варежка/Бременские музыканты/По следам бременских музыкантов/Крокодил Гена/Чебурашка/Шапокляк/Чебурашка идет в школу (Л.Бредис...и др, мульт..., 1948-1983) [DVDRip]
Рейтинг:
(голосов: 1)



[img]{THEME}/images/logopost.png[/img]



Первый урок (Ламис Бредис, мультфильм, короткометражка, 1948) [DVDRip, Не требуется ▼
Первый урок

Год выпуска: 1948
Страна: СССР
Производство: Союзмультфильм
Жанр: мультфильм, короткометражка

Режиссёр: Ламис Бредис
В ролях: Отсутствуют

Перевод: Не требуется
Субтитры: Отсутствуют

Описание:
Медведь-учитель, рассказывает медвежатам о пользе и вреде пчел, которые могут причинить медведям. Внезапно над полянкой появляется пчела. Медвежата, не дослушав урока, бросаются за ней в погоню.


"Скриншоты" ▼

Дополнительно:
MediaInfo ▼Text
Общее
Полное имя :M:Мульт-СалютМульт-Салют.DVDRipdisk - 15Pervyj urok.avi
Формат :AVI
Размер :153 MiB
Продолжительность :00:09:47.087
Общий поток :2 192 Kbps

Видео
Идентификатор :0
Формат :MPEG-4 Visual
Профиль формата :Advanced [email protected]
Параметр BVOP формата :2
Параметр Qpel формата :No
Параметр GMC формата :0
Параметр Matrix формата :Default (H.263)
Идентификатор кодека :XVID
Продолжительность :9mn 47s 87ms
Битрейт :1 989 Kbps
Ширина :720 pixels
Высота :544 pixels
Соотношение сторон :1.324
Частота кадров :23.976 fps
Глубина цвета :8 bits
Подвыборка цветности :4:2:0
Цветовое пространство :YUV
Тип развертки :Progressive
Бит/(Пиксели*Кадры) :0.212
Размер потока :139 MiB (91%)
Библиотека кодирования :XviD0063

Аудио #1
Идентификатор :1
Формат :AC-3
Формат/Информация :Audio Coding 3
Идентификатор кодека :2000
Продолжительность :00:09:46.779
Вид битрейта :Constant
Битрейт :192 Kbps
Канал(ы) :2 channels
Расположение каналов :Front: L R
Частота :44.1 KHz
Битовая глубина :16 bits
Метод сжатия :Lossy
Размер потока :13.4 MiB (9%)



Тех. данные:
Качество:DVDRip
Продолжительность:00:09:47 час

Формат: AVI
Видео кодек: XviD
Аудио кодек: AC3
Видео: 720 x 544 (4:3), 23.976 fps, 1 989 Kbps, 0.212 bit/pixel
Аудио : 44.1 KHz, Au
59d556f37ba1638e7f0f851bafc5387aefc35b83Мульт-Салют. 15 ч. из 30: Первый урок/Варежка/Бременские музыканты/По следам бременских музыкантов/Крокодил Гена/Чебурашка/Шапокляк/Чебурашка идет в школу (Л.Бредис...и др, мульт..., 1948-1983) [DVDRip] Мульт-Салют. 15 ч. из 30: Первый урок/Варежка/Бременские музыканты/По следам бременских музыкантов/Крокодил Гена/Чебурашка/Шапокляк/Чебурашка идет в школу (Л.Бредис...и др, мульт..., 1948-1983) [DVDRip] " />

Аплоадер: Админ, дата: 16-01-2013, 21:08, торрент скачан: 359 раз

Понравилась раздача? Посмотрите эти:
  • Мульт-Салют 3 ч. из 30: Верлиока/Опять двойка/Кошкин дом/Петя и Красная Шап ...
  • Мульт-Салют. 4 ч. из 30: Козленок, который считал до десяти/Малыш и Карлсон ...
  • Мульт-Салют. 5 ч. из 30: Ох и Ах/Слоненок и письмо/Возвращение блудного поп ...
  • Мульт-Салют. 13 ч. из 30: Чуня/Умка/Умка ищет друга/Терем-теремок/Просто та ...
  • Мульт-Салют. 14 ч. из 30: Аленький цветочек/Сестрица Аленушка и братец Иван ...
  • Мульт-Салют. 19 ч. из 30: Новогодняя ночь/Золотая антилопа/Вовка в Тридевят ...
  • Мульт-Салют. 20 ч. из 30: 38 попугаев (ч. 1-10 (из 10))/Поросёнок в колючей ...
  • Мульт-Салют. 22 ч. из 30: Необыкновенный матч/Старые знакомые/Шайбу! Шайбу! ...
  • Чебурашка и Крокодил Гена (Крокодил Гена, Чебурашка, Шапокляк, Чебурашка ид ...
  • Мульт-Салют. 23 ч. из 30: Приключения Васи Куролесова/Приключения пингвинен ...
  • Мульт-Салют. 24 ч. из 30: Машенькин концерт/Как Маша поссорилась с подушкой ...
  • Мульт-Салют. 25 ч. из 30: Высокая горка/Колобок/Машенька и медведь/Чьи в ле ...
  • Мульт-Салют. 26 ч. из 30: Волшебный магазин/Топтыжка/В стране невыученных у ...
  • Мульт-Салют. 27 ч. из 30: Орлиное перо/Чемпион/Чужой голос/Зай и Чик/Два жа ...
  • Мульт-Салют. 30 ч. из 30: Муха-цокотуха/Каникулы Бонифация/Кот в сапогах/Ай ...
  • Мульт-Салют 1 ч. из 30: Павлиний хвост/Цветик-семицветик/Мойдодыр/Необыкнов ...
  • Мульт-Салют. 2 ч. из 30: Серая шейка/Соломенный бычок/Тараканище/Дядя Миша/ ...
  • Мульт-Салют. 7 ч. из 30: Приключения Буратино/Чиполлино (Иван Иванов-Вано, ...
  • Мульт-Салют. 8 часть из 30: Трое из Простоквашино/Каникулы в Простоквашино/ ...
  • Мульт-Салют. 9 ч. из 30: В некотором царстве…/Снежная королева (Иван Иванов ...
  • Мульт-Салют. 11 часть из 30: Царевна-лягушка/Конек-Горбунок (Михаил Цеханов ...
  • Чебурашка и Крокодил Гена (4 из 4) [1969-1983 / мультфильм / DVDRip]
  • Чебурашка и Крокодил Гена (Роман Качанов , мультфильм, 1969 - 1983 год) [DV ...
  • Первый урок (Ламис Бредис, мультфильм, короткометражка, 1948 год) [DVDRip, ...
  • [Сборник] Чебурашка и Крокодил Гена (Крокодил Гена, Чебурашка, Шапокляк, Че ...
  • Информация
    Посетители, находящиеся в группе Гости, не могут оставлять комментарии к данной публикации.