вход на сайт

Имя пользователя :
Пароль :

Восстановление пароля Регистрация
Мульт-Салют. 11 часть из 30: Царевна-лягушка/Конек-Горбунок (Михаил Цехановский, Иван Иванов-Вано, мульт..., 1954, 1975) [DVDRip]
Рейтинг:
(голосов: 1)



[img]{THEME}/images/logopost.png[/img]



Царевна-лягушка

Царевна-лягушка (Михаил Цехановский, мультфильм, короткометражка, 1954) [DVDRip, Не требуется ▼

Год выпуска: 1954
Страна: СССР
Производство: Союзмультфильм
Жанр: мультфильм, короткометражка

Режиссёр: Михаил Цехановский
В ролях: Алексей Грибов, Георгий Милляр, Александр Румнев, Владимир Грибков, Борис Чирков

Перевод: Не требуется
Субтитры: Отсутствуют

Описание:
В некотором царстве, в некотором государстве жил-был царь. И задумал он женить своих сыновей. Решили они послать свои стрелы в разные стороны, какая куда попадет, там и невесту искать. Попала посланная Иваном-царевичем стрела на болотную кочку, где сидела лягушка…


"Скриншоты" ▼

Дополнительно:
MediaInfo ▼Text
Общее
Полное имя :M:Мульт-СалютМульт-Салют.DVDRipdisk - 11Carevna-ljagushka.avi
Формат :AVI
Размер :609 MiB
Продолжительность :00:38:43.571
Общий поток :2 200 Kbps

Видео
Идентификатор :0
Формат :MPEG-4 Visual
Профиль формата :Advanced [email protected]
Параметр BVOP формата :2
Параметр Qpel формата :No
Параметр GMC формата :0
Параметр Matrix формата :Default (H.263)
Идентификатор кодека :XVID
Продолжительность :38mn 43s 571ms
Битрейт :1 998 Kbps
Ширина :720 pixels
Высота :544 pixels
Соотношение сторон :1.324
Частота кадров :23.976 fps
Глубина цвета :8 bits
Подвыборка цветности :4:2:0
Цветовое пространство :YUV
Тип развертки :Progressive
Бит/(Пиксели*Кадры) :0.213
Размер потока :553 MiB (91%)
Библиотека кодирования :XviD0063

Аудио #1
Идентификатор :1
Формат :AC-3
Формат/Информация :Audio Coding 3
Идентификатор кодека :2000
Продолжительность :00:38:43.260
Вид битрейта :Constant
Битрейт :192 Kbps
Канал(ы) :2 channels
Расположение каналов :Front: L R
Частота :44.1 KHz
Битовая глубина :16 bits
Метод сжатия :Lossy
Размер потока :53.2 MiB (9%)



Тех. данные:
Качество:DVDRip
Продолжительность:&nb
b2a91b92f8b2a6ace1436cab130c5c3330fb814eМульт-Салют. 11 часть из 30: Царевна-лягушка/Конек-Горбунок (Михаил Цехановский, Иван Иванов-Вано, мульт..., 1954, 1975) [DVDRip] Мульт-Салют. 11 часть из 30: Царевна-лягушка/Конек-Горбунок (Михаил Цехановский, Иван Иванов-Вано, мульт..., 1954, 1975) [DVDRip] " />

Аплоадер: Админ, дата: 14-01-2013, 03:19, торрент скачан: 359 раз

Понравилась раздача? Посмотрите эти:
  • Конёк-Горбунок (Иван Иванов-Вано,мультфильм, фэнтези, мелодрама, комедия, с ...
  • Мульт-Салют 3 ч. из 30: Верлиока/Опять двойка/Кошкин дом/Петя и Красная Шап ...
  • Мульт-Салют. 4 ч. из 30: Козленок, который считал до десяти/Малыш и Карлсон ...
  • Мульт-Салют. 5 ч. из 30: Ох и Ах/Слоненок и письмо/Возвращение блудного поп ...
  • Мульт-Салют. 13 ч. из 30: Чуня/Умка/Умка ищет друга/Терем-теремок/Просто та ...
  • Мульт-Салют. 14 ч. из 30: Аленький цветочек/Сестрица Аленушка и братец Иван ...
  • Мульт-Салют. 16 ч. из 30: Снегурочка/Гадкий утёнок/Свинья-копилка/Дюймовочк ...
  • Мульт-Салют. 17 ч. из 30: Сказка о мертвой царевне и о семи богатырях/Стрел ...
  • Мульт-Салют. 18 ч. из 30: Непослушный котёнок/Храбрый заяц/Вот так тигр!/Ка ...
  • Мульт-Салют. 19 ч. из 30: Новогодняя ночь/Золотая антилопа/Вовка в Тридевят ...
  • Мульт-Салют. 20 ч. из 30: 38 попугаев (ч. 1-10 (из 10))/Поросёнок в колючей ...
  • Мульт-Салют. 21 ч. из 30: Чудесный колокольчик/Когда зажигаются елки/Утёнок ...
  • Мульт-Салют. 22 ч. из 30: Необыкновенный матч/Старые знакомые/Шайбу! Шайбу! ...
  • Мульт-Салют. 23 ч. из 30: Приключения Васи Куролесова/Приключения пингвинен ...
  • Мульт-Салют. 25 ч. из 30: Высокая горка/Колобок/Машенька и медведь/Чьи в ле ...
  • Мульт-Салют. 26 ч. из 30: Волшебный магазин/Топтыжка/В стране невыученных у ...
  • Мульт-Салют. 27 ч. из 30: Орлиное перо/Чемпион/Чужой голос/Зай и Чик/Два жа ...
  • Мульт-Салют 1 ч. из 30: Павлиний хвост/Цветик-семицветик/Мойдодыр/Необыкнов ...
  • Мульт-Салют. 2 ч. из 30: Серая шейка/Соломенный бычок/Тараканище/Дядя Миша/ ...
  • Мульт-Салют. 6 ч. из 30: Гуси-лебеди/Сказка о рыбаке и рыбке/Волк и семеро ...
  • Мульт-Салют. 7 ч. из 30: Приключения Буратино/Чиполлино (Иван Иванов-Вано, ...
  • Мульт-Салют. 8 часть из 30: Трое из Простоквашино/Каникулы в Простоквашино/ ...
  • Мульт-Салют. 9 ч. из 30: В некотором царстве…/Снежная королева (Иван Иванов ...
  • Царевна-лягушка (Михаил Цехановский, Мультфильм, Сказка, 1954 г.) [DVDRip, ...
  • [Сборник] Русские народные сказки. Выпуск II: Царевна-лягушка, Последняя не ...
  • Информация
    Посетители, находящиеся в группе Гости, не могут оставлять комментарии к данной публикации.