вход на сайт

Имя пользователя :
Пароль :

Восстановление пароля Регистрация
Мульт-Салют. 8 часть из 30: Трое из Простоквашино/Каникулы в Простоквашино/Зима в Простоквашино/Бюро находок (Фильм 1-4) (Владимир Попов..., мульт..., 1978-1984) [DVDRip]
Рейтинг:
(голосов: 1)



[img]{THEME}/images/logopost.png[/img]



Трое из Простоквашино (Владимир Попов, мультфильм, короткометражка, семейный, 1978) [DVDRip, Не требуется ▼
Трое из Простоквашино

Год выпуска: 1978
Страна: СССР
Производство: Союзмультфильм
Жанр: мультфильм, короткометражка, семейный

Режиссёр: Владимир Попов
В ролях: Мария Виноградова, Олег Табаков, Лев Дуров, Борис Новиков, Герман Качин, Валентина Талызина

Перевод: Не требуется
Субтитры: Отсутствуют

Описание:
Жил-был мальчик по прозвищу Дядя Федор. Он очень любил животных, но его родители и слышать ничего не хотели о том, чобы в их квартире завелся кто-то хвостатый и лохматый. И пришлось Дяде Федору со своими новыми приятелями — котом Матроскиным и верным песиком Шариком — отправиться в деревню Простоквашино.


"Скриншоты" ▼

Дополнительно:
MediaInfo ▼Text
Общее
Полное имя :M:Мульт-СалютМульт-Салют.DVDRipdisk - 8Troe iz Prostokvashino.avi
Формат :AVI
Размер :278 MiB
Продолжительность :00:17:42.770
Общий поток :2 196 Kbps

Видео
Идентификатор :0
Формат :MPEG-4 Visual
Профиль формата :Advanced [email protected]
Параметр BVOP формата :2
Параметр Qpel формата :No
Параметр GMC формата :0
Параметр Matrix формата :Default (H.263)
Идентификатор кодека :XVID
Продолжительность :17mn 42s 770ms
Битрейт :1 994 Kbps
Ширина :720 pixels
Высота :544 pixels
Соотношение сторон :1.324
Частота кадров :23.976 fps
Глубина цвета :8 bits
Подвыборка цветности :4:2:0
Цветовое пространство :YUV
Тип развертки :Progressive
Бит/(Пиксели*Кадры) :0.212
Размер потока :253 MiB (91%)
Библиотека кодирования :XviD0063

Аудио #1
Идентификатор :1
Формат :AC-3
Формат/Информация :Audio Coding 3
Идентификатор кодека :2000
Продолжительность :00:17:42.452
Вид битрейта :Constant
Битрейт :192 Kbps
Канал(ы) :2 channels
Расположение каналов :Front: L R
Частота :44.1 KHz
Битовая глубина :16 bits
Метод сжатия :Lossy
Размер потока :24.3 MiB (9%)


&nb
4fa9d1bc33831b1fa7ddbfdc39c57325632bf383Мульт-Салют. 8 часть из 30: Трое из Простоквашино/Каникулы в Простоквашино/Зима в Простоквашино/Бюро находок (Фильм 1-4) (Владимир Попов..., мульт..., 1978-1984) [DVDRip] Мульт-Салют. 8 часть из 30: Трое из Простоквашино/Каникулы в Простоквашино/Зима в Простоквашино/Бюро находок (Фильм 1-4) (Владимир Попов..., мульт..., 1978-1984) [DVDRip] " />

Аплоадер: Админ, дата: 14-01-2013, 02:39, торрент скачан: 359 раз

Понравилась раздача? Посмотрите эти:
  • Трое из Простоквашино/ 3 серии (Владимир Попов , мультфильм, 1978-1984 г.) ...
  • Мульт-Салют. 4 ч. из 30: Козленок, который считал до десяти/Малыш и Карлсон ...
  • Мульт-Салют. 5 ч. из 30: Ох и Ах/Слоненок и письмо/Возвращение блудного поп ...
  • Мульт-Салют. 13 ч. из 30: Чуня/Умка/Умка ищет друга/Терем-теремок/Просто та ...
  • Мульт-Салют. 14 ч. из 30: Аленький цветочек/Сестрица Аленушка и братец Иван ...
  • Мульт-Салют. 22 ч. из 30: Необыкновенный матч/Старые знакомые/Шайбу! Шайбу! ...
  • Трое из Простоквашино (Владимир Попов, Мультфильм, Короткометражка, 1978-19 ...
  • [Сборник] Трое из Простоквашино: Каникулы в Простоквашино; Зима в Простоква ...
  • Трое из Простоквашино: Новый год! (Акелла/2008/RUS)[L]
  • Мульт-Салют. 23 ч. из 30: Приключения Васи Куролесова/Приключения пингвинен ...
  • Мульт-Салют. 25 ч. из 30: Высокая горка/Колобок/Машенька и медведь/Чьи в ле ...
  • Мульт-Салют. 26 ч. из 30: Волшебный магазин/Топтыжка/В стране невыученных у ...
  • Мульт-Салют. 30 ч. из 30: Муха-цокотуха/Каникулы Бонифация/Кот в сапогах/Ай ...
  • Мульт-Салют 1 ч. из 30: Павлиний хвост/Цветик-семицветик/Мойдодыр/Необыкнов ...
  • Мульт-Салют. 2 ч. из 30: Серая шейка/Соломенный бычок/Тараканище/Дядя Миша/ ...
  • Мульт-Салют. 7 ч. из 30: Приключения Буратино/Чиполлино (Иван Иванов-Вано, ...
  • Мульт-Салют. 9 ч. из 30: В некотором царстве…/Снежная королева (Иван Иванов ...
  • Мульт-Салют. 11 часть из 30: Царевна-лягушка/Конек-Горбунок (Михаил Цеханов ...
  • Простоквашино 1,2,3 [1978-1984 / мультфильм / DVDRip]
  • Трое из Простоквашино: Летние каникулы
  • Трое из Простоквашино: Дядя Федор идет в школу
  • Трое из Простоквашино. Сборник мультфильмов (Владимир Попов / семейный, мул ...
  • Трое из Простоквашино,Каникулы в Простоквашино, Зима в Простоквашино (Влади ...
  • Трое из Простоквашино (Владимир Попов , Мультфильм, Короткометражка, Семейн ...
  • Трое из Простоквашино. Сборник мультфильмов (Владимир Попов, мультфильм, ко ...
  • Информация
    Посетители, находящиеся в группе Гости, не могут оставлять комментарии к данной публикации.