вход на сайт

Имя пользователя :
Пароль :

Восстановление пароля Регистрация
Мульт-Салют. 7 ч. из 30: Приключения Буратино/Чиполлино (Иван Иванов-Вано, Дмитрий Бабиченко, Борис Дежкин, мульт..., 1959-1961) [DVDRip]
Рейтинг:
(голосов: 1)



[img]{THEME}/images/logopost.png[/img]



Приключения Буратино (Дмитрий Бабиченко, Иван Иванов-Вано, мультфильм, фэнтези, приключения, семейный, 1959) [DVDRip, Не требуется ▼
Приключения Буратино

Год выпуска: 1959
Страна: СССР
Производство: Союзмультфильм
Жанр: мультфильм, фэнтези, приключения, семейный

Режиссёр: Дмитрий Бабиченко, Иван Иванов-Вано
В ролях: Нина Гуляева, Евгений Весник, Георгий Вицин, Тамара Дмитриева, Маргарита Корабельникова, А. Барабанов, Елена Понсова, Владимир Лепко

Перевод: Не требуется
Субтитры: Отсутствуют

Описание:
По сказке А. Н. Толстого «Золотой ключик».


"Скриншоты" ▼

Дополнительно:
MediaInfo ▼Text
Общее
Полное имя :M:Мульт-СалютМульт-Салют.DVDRipdisk - 7Prikljuchenija Buratino.avi
Формат :AVI
Размер :1 013 MiB
Продолжительность :01:04:20.774
Общий поток :2 201 Kbps

Видео
Идентификатор :0
Формат :MPEG-4 Visual
Профиль формата :Advanced [email protected]
Параметр BVOP формата :2
Параметр Qpel формата :No
Параметр GMC формата :0
Параметр Matrix формата :Default (H.263)
Идентификатор кодека :XVID
Продолжительность :1h 4mn 20s 774ms
Битрейт :1 999 Kbps
Ширина :720 pixels
Высота :544 pixels
Соотношение сторон :1.324
Частота кадров :23.976 fps
Глубина цвета :8 bits
Подвыборка цветности :4:2:0
Цветовое пространство :YUV
Тип развертки :Progressive
Бит/(Пиксели*Кадры) :0.213
Размер потока :920 MiB (91%)
Библиотека кодирования :XviD0063

Аудио #1
Идентификатор :1
Формат :AC-3
Формат/Информация :Audio Coding 3
Идентификатор кодека :2000
Продолжительность :01:04:20.445
Вид битрейта :Constant
Битрейт :192 Kbps
Канал(ы) :2 channels
Расположение каналов :Front: L R
Частота :44.1 KHz
Битовая глубина :16 bits
Метод сжатия :Lossy
Размер потока :88.4 MiB (9%)



Тех. данные:
Качество:DVDRip
Продолжительность:01:04:24 час

Формат: AVI
Видео кодек: XviD
Аудио кодек: AC3
Видео:
7107785c85123e1ed5f910ce650be2ee5d7a4cb2Мульт-Салют. 7 ч. из 30: Приключения Буратино/Чиполлино (Иван Иванов-Вано, Дмитрий Бабиченко, Борис Дежкин, мульт..., 1959-1961) [DVDRip] Мульт-Салют. 7 ч. из 30: Приключения Буратино/Чиполлино (Иван Иванов-Вано, Дмитрий Бабиченко, Борис Дежкин, мульт..., 1959-1961) [DVDRip] " />

Аплоадер: Админ, дата: 14-01-2013, 02:31, торрент скачан: 359 раз

Понравилась раздача? Посмотрите эти:
  • Золотой ключик или Приключения Буратино (Иван Иванов-Вано, Дмитрий Бабиченк ...
  • Мульт-Салют 3 ч. из 30: Верлиока/Опять двойка/Кошкин дом/Петя и Красная Шап ...
  • Мульт-Салют. 5 ч. из 30: Ох и Ах/Слоненок и письмо/Возвращение блудного поп ...
  • Мульт-Салют. 13 ч. из 30: Чуня/Умка/Умка ищет друга/Терем-теремок/Просто та ...
  • Мульт-Салют. 14 ч. из 30: Аленький цветочек/Сестрица Аленушка и братец Иван ...
  • Мульт-Салют. 16 ч. из 30: Снегурочка/Гадкий утёнок/Свинья-копилка/Дюймовочк ...
  • Мульт-Салют. 17 ч. из 30: Сказка о мертвой царевне и о семи богатырях/Стрел ...
  • Мульт-Салют. 18 ч. из 30: Непослушный котёнок/Храбрый заяц/Вот так тигр!/Ка ...
  • Мульт-Салют. 19 ч. из 30: Новогодняя ночь/Золотая антилопа/Вовка в Тридевят ...
  • Мульт-Салют. 20 ч. из 30: 38 попугаев (ч. 1-10 (из 10))/Поросёнок в колючей ...
  • Мульт-Салют. 22 ч. из 30: Необыкновенный матч/Старые знакомые/Шайбу! Шайбу! ...
  • Приключения Буратино (Дмитрий Бабиченко, Иван Иванов-Вано, Мультфильм, 1959 ...
  • Мульт-Салют. 23 ч. из 30: Приключения Васи Куролесова/Приключения пингвинен ...
  • Мульт-Салют. 25 ч. из 30: Высокая горка/Колобок/Машенька и медведь/Чьи в ле ...
  • Мульт-Салют. 26 ч. из 30: Волшебный магазин/Топтыжка/В стране невыученных у ...
  • Мульт-Салют. 27 ч. из 30: Орлиное перо/Чемпион/Чужой голос/Зай и Чик/Два жа ...
  • Мульт-Салют. 28 ч. из 30: Тихая поляна/Снежные дорожки/Антошка/Два веселых ...
  • Мульт-Салют. 29 ч. из 30: Олень и волк/Три мешка хитростей/Храбрый олененок ...
  • Мульт-Салют. 30 ч. из 30: Муха-цокотуха/Каникулы Бонифация/Кот в сапогах/Ай ...
  • Мульт-Салют. 2 ч. из 30: Серая шейка/Соломенный бычок/Тараканище/Дядя Миша/ ...
  • Мульт-Салют. 6 ч. из 30: Гуси-лебеди/Сказка о рыбаке и рыбке/Волк и семеро ...
  • Мульт-Салют. 8 часть из 30: Трое из Простоквашино/Каникулы в Простоквашино/ ...
  • Мульт-Салют. 9 ч. из 30: В некотором царстве…/Снежная королева (Иван Иванов ...
  • Мульт-Салют. 11 часть из 30: Царевна-лягушка/Конек-Горбунок (Михаил Цеханов ...
  • [Сборник] Сказки русских писателей I: Храбрый заяц, Сказка о попе и о его р ...
  • Информация
    Посетители, находящиеся в группе Гости, не могут оставлять комментарии к данной публикации.