вход на сайт

Имя пользователя :
Пароль :

Восстановление пароля Регистрация
Мульт-Салют. 6 ч. из 30: Гуси-лебеди/Сказка о рыбаке и рыбке/Волк и семеро козлят/Дядя Степа – милиционер/В гостях у лета/Серебряное копытце (Иван Иванов-Вано..., мульт..., 1949-1977) [DVDRip]
Рейтинг:
(голосов: 1)



[img]{THEME}/images/logopost.png[/img]



Гуси-лебеди (Иван Иванов-Вано, Александра Снежко-Блоцкая, мультфильм, короткометражка, детский, фэнтези, семейный, 1949) [DVDRip, Не требуется ▼
Гуси-лебеди

Год выпуска: 1949
Страна: СССР
Производство: Союзмультфильм
Жанр: мультфильм, короткометражка, детский, фэнтези, семейный

Режиссёр: Иван Иванов-Вано, Александра Снежко-Блоцкая
В ролях: Мария Бабанова, Вера Орлова

Перевод: Не требуется
Субтитры: Отсутствуют

Описание:
По мотивам русской народной сказки. Уехали матушка с батюшкой, а дочери наказ оставили братца Ваню беречь, со двора не выпускать. Заигралась Машенька, да не доглядела: унесли братика гуси-лебеди, помощники Бабы Яги. Теперь Машеньке надо выручать Ваню, а помогут ей в этом добрые друзья: яблонька, печка, речка и др.


"Скриншоты" ▼

Дополнительно:
MediaInfo ▼Text
Общее
Полное имя :M:Мульт-СалютМульт-Салют.DVDRipdisk - 6Gusi-lebedi.avi
Формат :AVI
Размер :291 MiB
Продолжительность :00:18:32.528
Общий поток :2 197 Kbps

Видео
Идентификатор :0
Формат :MPEG-4 Visual
Профиль формата :Advanced [email protected]
Параметр BVOP формата :2
Параметр Qpel формата :No
Параметр GMC формата :0
Параметр Matrix формата :Default (H.263)
Идентификатор кодека :XVID
Продолжительность :18mn 32s 528ms
Битрейт :1 995 Kbps
Ширина :720 pixels
Высота :544 pixels
Соотношение сторон :1.324
Частота кадров :23.976 fps
Глубина цвета :8 bits
Подвыборка цветности :4:2:0
Цветовое пространство :YUV
Тип развертки :Progressive
Бит/(Пиксели*Кадры) :0.212
Размер потока :265 MiB (91%)
Библиотека кодирования :XviD0063

Аудио #1
Идентификатор :1
Формат :AC-3
Формат/Информация :Audio Coding 3
Идентификатор кодека :2000
Продолжительность :00:18:32.224
Вид битрейта :Constant
Битрейт :192 Kbps
Канал(ы) :2 channels
Расположение каналов :Front: L R
Частота :44.1 KHz
Битовая глубина :16 bits
Метод сжатия :Lossy
Размер потока :25.5 MiB (9
73f884bd99203e53f5e8985967c95a41bfa4291eМульт-Салют. 6 ч. из 30: Гуси-лебеди/Сказка о рыбаке и рыбке/Волк и семеро козлят/Дядя Степа – милиционер/В гостях у лета/Серебряное копытце (Иван Иванов-Вано..., мульт..., 1949-1977) [DVDRip] Мульт-Салют. 6 ч. из 30: Гуси-лебеди/Сказка о рыбаке и рыбке/Волк и семеро козлят/Дядя Степа – милиционер/В гостях у лета/Серебряное копытце (Иван Иванов-Вано..., мульт..., 1949-1977) [DVDRip] " />

Аплоадер: Админ, дата: 14-01-2013, 02:25, торрент скачан: 359 раз

Понравилась раздача? Посмотрите эти:
  • Гуси-лебеди (Иван Иванов-Вано, Александра Снежко-Блоцкая, Мультфильм, 1949) ...
  • Мульт-Салют 3 ч. из 30: Верлиока/Опять двойка/Кошкин дом/Петя и Красная Шап ...
  • Мульт-Салют. 4 ч. из 30: Козленок, который считал до десяти/Малыш и Карлсон ...
  • Мульт-Салют. 5 ч. из 30: Ох и Ах/Слоненок и письмо/Возвращение блудного поп ...
  • Мульт-Салют. 13 ч. из 30: Чуня/Умка/Умка ищет друга/Терем-теремок/Просто та ...
  • Мульт-Салют. 16 ч. из 30: Снегурочка/Гадкий утёнок/Свинья-копилка/Дюймовочк ...
  • Мульт-Салют. 17 ч. из 30: Сказка о мертвой царевне и о семи богатырях/Стрел ...
  • Мульт-Салют. 18 ч. из 30: Непослушный котёнок/Храбрый заяц/Вот так тигр!/Ка ...
  • Мульт-Салют. 20 ч. из 30: 38 попугаев (ч. 1-10 (из 10))/Поросёнок в колючей ...
  • Мульт-Салют. 21 ч. из 30: Чудесный колокольчик/Когда зажигаются елки/Утёнок ...
  • Мульт-Салют. 22 ч. из 30: Необыкновенный матч/Старые знакомые/Шайбу! Шайбу! ...
  • Мульт-Салют. 23 ч. из 30: Приключения Васи Куролесова/Приключения пингвинен ...
  • Мульт-Салют. 24 ч. из 30: Машенькин концерт/Как Маша поссорилась с подушкой ...
  • Мульт-Салют. 25 ч. из 30: Высокая горка/Колобок/Машенька и медведь/Чьи в ле ...
  • Мульт-Салют. 27 ч. из 30: Орлиное перо/Чемпион/Чужой голос/Зай и Чик/Два жа ...
  • Мульт-Салют. 29 ч. из 30: Олень и волк/Три мешка хитростей/Храбрый олененок ...
  • Мульт-Салют. 2 ч. из 30: Серая шейка/Соломенный бычок/Тараканище/Дядя Миша/ ...
  • Мульт-Салют. 7 ч. из 30: Приключения Буратино/Чиполлино (Иван Иванов-Вано, ...
  • Мульт-Салют. 8 часть из 30: Трое из Простоквашино/Каникулы в Простоквашино/ ...
  • Мульт-Салют. 9 ч. из 30: В некотором царстве…/Снежная королева (Иван Иванов ...
  • Мульт-Салют. 11 часть из 30: Царевна-лягушка/Конек-Горбунок (Михаил Цеханов ...
  • Гуси-лебеди [1949 / мультфильм / DVDRip]
  • В гостях у сказки. Выпуск 2 (Новогодняя ночь, Гуси-лебеди, Петя и Красная Ш ...
  • [Сборник] Русские народные сказки. Выпуск I: Гуси-лебеди, Сестрица Аленушка ...
  • [Сборник] Сказки русских писателей. Выпуск II: Аленький цветочек, Как один ...
  • Информация
    Посетители, находящиеся в группе Гости, не могут оставлять комментарии к данной публикации.