вход на сайт

Имя пользователя :
Пароль :

Восстановление пароля Регистрация
Мульт-Салют. 28 ч. из 30: Тихая поляна/Снежные дорожки/Антошка/Два веселых гуся/Рыжий, рыжий, конопатый/Мы с Джеком/Пустомеля/Трям! Здравствуйте!/Осенние корабли/Удивительная бочка/Мисс Новый Год (Г.Филиппов... и др., мульт..., 1946-1991) [DVDRip]
Рейтинг:
(голосов: 1)



[img]{THEME}/images/logopost.png[/img]



Тихая поляна (Геннадий Филиппов, Борис Дежкин, мультфильм, короткометражка, 1946) [DVDRip, Не требуется ▼
Тихая поляна

Год выпуска: 1946
Страна: СССР
Производство: Союзмультфильм
Жанр: мультфильм, короткометражка

Режиссёр: Геннадий Филиппов, Борис Дежкин
В ролях: Вадим Синявский

Перевод: Не требуется
Субтитры: Отсутствуют

Описание:
На тихой поляне в футбольном матче между зайцами и медведями — ничья и побеждает дружба.


"Скриншоты" ▼

Дополнительно:
MediaInfo ▼Text
Общее
Полное имя :M:Мульт-СалютМульт-Салют.DVDRipdisk - 28Tihaja poljana.avi
Формат :AVI
Размер :159 MiB
Продолжительность :00:10:08.691
Общий поток :2 193 Kbps

Видео
Идентификатор :0
Формат :MPEG-4 Visual
Профиль формата :Advanced [email protected]
Параметр BVOP формата :2
Параметр Qpel формата :No
Параметр GMC формата :0
Параметр Matrix формата :Default (H.263)
Идентификатор кодека :XVID
Продолжительность :10mn 8s 691ms
Битрейт :1 991 Kbps
Ширина :720 pixels
Высота :544 pixels
Соотношение сторон :1.324
Частота кадров :23.976 fps
Глубина цвета :8 bits
Подвыборка цветности :4:2:0
Цветовое пространство :YUV
Тип развертки :Progressive
Бит/(Пиксели*Кадры) :0.212
Размер потока :144 MiB (91%)
Библиотека кодирования :XviD0063

Аудио #1
Идентификатор :1
Формат :AC-3
Формат/Информация :Audio Coding 3
Идентификатор кодека :2000
Продолжительность :00:10:08.444
Вид битрейта :Constant
Битрейт :192 Kbps
Канал(ы) :2 channels
Расположение каналов :Front: L R
Частота :44.1 KHz
Битовая глубина :16 bits
Метод сжатия :Lossy
Размер потока :13.9 MiB (9%)



Тех. данные:
Качество:DVDRip
Продолжительность:00:10:01 час

Формат: AVI
Видео кодек: XviD
Аудио кодек: AC3
Видео: 720 x 544 (4:3), 23.976 fps, 1 991 Kbps, 0.212 bit/pixel
Аудио : 44.1 KHz, Audio Coding 3, 2 channels (Front: L R), 192 Kbps


С
411379a50002f527d323dadef6bec6fd0c1b030eМульт-Салют. 28 ч. из 30: Тихая поляна/Снежные дорожки/Антошка/Два веселых гуся/Рыжий, рыжий, конопатый/Мы с Джеком/Пустомеля/Трям! Здравствуйте!/Осенние корабли/Удивительная бочка/Мисс Новый Год (Г.Филиппов... и др., мульт..., 1946-1991) [DVDRip] Мульт-Салют. 28 ч. из 30: Тихая поляна/Снежные дорожки/Антошка/Два веселых гуся/Рыжий, рыжий, конопатый/Мы с Джеком/Пустомеля/Трям! Здравствуйте!/Осенние корабли/Удивительная бочка/Мисс Новый Год (Г.Филиппов... и др., мульт..., 1946-1991) [DVDRip] " />

Аплоадер: Админ, дата: 19-01-2013, 04:07, торрент скачан: 359 раз

Понравилась раздача? Посмотрите эти:
  • Мульт-Салют 3 ч. из 30: Верлиока/Опять двойка/Кошкин дом/Петя и Красная Шап ...
  • Мульт-Салют. 5 ч. из 30: Ох и Ах/Слоненок и письмо/Возвращение блудного поп ...
  • Мульт-Салют. 13 ч. из 30: Чуня/Умка/Умка ищет друга/Терем-теремок/Просто та ...
  • Мульт-Салют. 14 ч. из 30: Аленький цветочек/Сестрица Аленушка и братец Иван ...
  • Мульт-Салют. 18 ч. из 30: Непослушный котёнок/Храбрый заяц/Вот так тигр!/Ка ...
  • Мульт-Салют. 19 ч. из 30: Новогодняя ночь/Золотая антилопа/Вовка в Тридевят ...
  • Мульт-Салют. 22 ч. из 30: Необыкновенный матч/Старые знакомые/Шайбу! Шайбу! ...
  • Мульт-Салют. 23 ч. из 30: Приключения Васи Куролесова/Приключения пингвинен ...
  • Мульт-Салют. 25 ч. из 30: Высокая горка/Колобок/Машенька и медведь/Чьи в ле ...
  • Мульт-Салют. 26 ч. из 30: Волшебный магазин/Топтыжка/В стране невыученных у ...
  • Мульт-Салют. 27 ч. из 30: Орлиное перо/Чемпион/Чужой голос/Зай и Чик/Два жа ...
  • Мульт-Салют. 30 ч. из 30: Муха-цокотуха/Каникулы Бонифация/Кот в сапогах/Ай ...
  • Мульт-Салют 1 ч. из 30: Павлиний хвост/Цветик-семицветик/Мойдодыр/Необыкнов ...
  • Мульт-Салют. 2 ч. из 30: Серая шейка/Соломенный бычок/Тараканище/Дядя Миша/ ...
  • Мульт-Салют. 7 ч. из 30: Приключения Буратино/Чиполлино (Иван Иванов-Вано, ...
  • Мульт-Салют. 8 часть из 30: Трое из Простоквашино/Каникулы в Простоквашино/ ...
  • Мульт-Салют. 9 ч. из 30: В некотором царстве…/Снежная королева (Иван Иванов ...
  • Мульт-Салют. 11 часть из 30: Царевна-лягушка/Конек-Горбунок (Михаил Цеханов ...
  • Мульт-Салют. 15 ч. из 30: Первый урок/Варежка/Бременские музыканты/По следа ...
  • [Сборник] Трям! Здравствуйте! / Зимняя сказка / Осенние корабли / Удивитель ...
  • Информация
    Посетители, находящиеся в группе Гости, не могут оставлять комментарии к данной публикации.