вход на сайт

Имя пользователя :
Пароль :

Восстановление пароля Регистрация
Мульт-Салют. 24 ч. из 30: Машенькин концерт/Как Маша поссорилась с подушкой/Маша больше не лентяйка/Маша и волшебное варенье/Крашеный лис/Катерок/Сказка о старом эхо/Земляничный дождик/Еловое яблоко (Л.Мильчин... и др., мульт..., 1948-1993) [DVDRip]
Рейтинг:
(голосов: 1)



[img]{THEME}/images/logopost.png[/img]



Машенькин концерт (Мстислав Пащенко, мультфильм, короткометражка, 1948) [DVDRip, Не требуется ▼
Машенькин концерт

Год выпуска: 1948
Страна: СССР
Производство: Союзмультфильм
Жанр: мультфильм, короткометражка

Режиссёр: Мстислав Пащенко
В ролях: Отсутствуют

Перевод: Не требуется
Субтитры: Отсутствуют

Описание:
О маленькой девочке Машеньке, устроившей концерт игрушек для того, чтобы развеселить свою новую куклу — негритенка Тома. Машеньке и ее друзьям удалось развеселить маленького Тома.


"Скриншоты" ▼

Дополнительно:
MediaInfo ▼Text
Общее
Полное имя :M:Мульт-СалютМульт-Салют.DVDRipdisk - 24Mashenkin koncert.avi
Формат :AVI
Размер :143 MiB
Продолжительность :00:09:08.631
Общий поток :2 192 Kbps

Видео
Идентификатор :0
Формат :MPEG-4 Visual
Профиль формата :Advanced [email protected]
Параметр BVOP формата :2
Параметр Qpel формата :No
Параметр GMC формата :0
Параметр Matrix формата :Default (H.263)
Идентификатор кодека :XVID
Продолжительность :9mn 8s 631ms
Битрейт :1 990 Kbps
Ширина :720 pixels
Высота :544 pixels
Соотношение сторон :1.324
Частота кадров :23.976 fps
Глубина цвета :8 bits
Подвыборка цветности :4:2:0
Цветовое пространство :YUV
Тип развертки :Progressive
Бит/(Пиксели*Кадры) :0.212
Размер потока :130 MiB (91%)
Библиотека кодирования :XviD0063

Аудио #1
Идентификатор :1
Формат :AC-3
Формат/Информация :Audio Coding 3
Идентификатор кодека :2000
Продолжительность :00:09:08.327
Вид битрейта :Constant
Битрейт :192 Kbps
Канал(ы) :2 channels
Расположение каналов :Front: L R
Частота :44.1 KHz
Битовая глубина :16 bits
Метод сжатия :Lossy
Размер потока :12.6 MiB (9%)



Тех. данные:
Качество:DVDRip
Продолжительность:00:09:01 час

Формат: AVI
Видео кодек: XviD
Аудио кодек: AC3
Видео: 720 x 544 (4:3), 23.976 fps, 1 990 Kbps, 0.212 bit/pixel
Аудио : 4
6b9db1fffc848a2fe3b9d4ce246a36efd6055ef2Мульт-Салют. 24 ч. из 30: Машенькин концерт/Как Маша поссорилась с подушкой/Маша больше не лентяйка/Маша и волшебное варенье/Крашеный лис/Катерок/Сказка о старом эхо/Земляничный дождик/Еловое яблоко (Л.Мильчин... и др., мульт..., 1948-1993) [DVDRip] Мульт-Салют. 24 ч. из 30: Машенькин концерт/Как Маша поссорилась с подушкой/Маша больше не лентяйка/Маша и волшебное варенье/Крашеный лис/Катерок/Сказка о старом эхо/Земляничный дождик/Еловое яблоко (Л.Мильчин... и др., мульт..., 1948-1993) [DVDRip] " />

Аплоадер: Админ, дата: 19-01-2013, 03:41, торрент скачан: 359 раз

Понравилась раздача? Посмотрите эти:
  • Мульт-Салют. 5 ч. из 30: Ох и Ах/Слоненок и письмо/Возвращение блудного поп ...
  • Мульт-Салют. 13 ч. из 30: Чуня/Умка/Умка ищет друга/Терем-теремок/Просто та ...
  • Мульт-Салют. 14 ч. из 30: Аленький цветочек/Сестрица Аленушка и братец Иван ...
  • Мульт-Салют. 16 ч. из 30: Снегурочка/Гадкий утёнок/Свинья-копилка/Дюймовочк ...
  • Мульт-Салют. 17 ч. из 30: Сказка о мертвой царевне и о семи богатырях/Стрел ...
  • Мульт-Салют. 18 ч. из 30: Непослушный котёнок/Храбрый заяц/Вот так тигр!/Ка ...
  • Мульт-Салют. 19 ч. из 30: Новогодняя ночь/Золотая антилопа/Вовка в Тридевят ...
  • Мульт-Салют. 22 ч. из 30: Необыкновенный матч/Старые знакомые/Шайбу! Шайбу! ...
  • Мульт-Салют. 23 ч. из 30: Приключения Васи Куролесова/Приключения пингвинен ...
  • Мульт-Салют. 25 ч. из 30: Высокая горка/Колобок/Машенька и медведь/Чьи в ле ...
  • Мульт-Салют. 27 ч. из 30: Орлиное перо/Чемпион/Чужой голос/Зай и Чик/Два жа ...
  • Мульт-Салют. 2 ч. из 30: Серая шейка/Соломенный бычок/Тараканище/Дядя Миша/ ...
  • Мульт-Салют. 6 ч. из 30: Гуси-лебеди/Сказка о рыбаке и рыбке/Волк и семеро ...
  • Мульт-Салют. 7 ч. из 30: Приключения Буратино/Чиполлино (Иван Иванов-Вано, ...
  • Мульт-Салют. 9 ч. из 30: В некотором царстве…/Снежная королева (Иван Иванов ...
  • Мульт-Салют. 11 часть из 30: Царевна-лягушка/Конек-Горбунок (Михаил Цеханов ...
  • Мульт-Салют. 15 ч. из 30: Первый урок/Варежка/Бременские музыканты/По следа ...
  • Маша и волшебное варенье (Лев Мильчин, мультфильм, короткометражка, 1979 го ...
  • Лисёнок. Сказка о старом Эхо / Земляничный дождик / Мотылек / Еловое яблоко ...
  • [Сборник] Сказки про Машеньку: Машенькин концерт, Чудесный колокольчик, Маш ...
  • Информация
    Посетители, находящиеся в группе Гости, не могут оставлять комментарии к данной публикации.