вход на сайт

Имя пользователя :
Пароль :

Восстановление пароля Регистрация
Мульт-Салют. 23 ч. из 30: Приключения Васи Куролесова/Приключения пингвиненка Лоло. Фильм 1,2,3 (В.Попов, Г.Сокольский, К.Ёсида, мульт..., 1981-1987) [DVDRip]
Рейтинг:
(голосов: 1)



[img]{THEME}/images/logopost.png[/img]



Приключения Васи Куролесова (Владимир Попов, мультфильм, короткометражка, 1981) [DVDRip, Не требуется ▼
Приключения Васи Куролесова

Год выпуска: 1981
Страна: СССР
Производство: Союзмультфильм
Жанр: мультфильм, короткометражка

Режиссёр: Владимир Попов
В ролях: Лев Дуров, Михаил Кононов, Вячеслав Невинный, Вера Васильева, Борис Новиков, Евгений Леонов, Юрий Яковлев

Перевод: Не требуется
Субтитры: Отсутствуют

Описание:
Комический детектив по мотивам повести Юрия Коваля о злоключениях наивного деревенского паренька Васи Куролесова, одураченного шайкой местных уголовников.


"Скриншоты" ▼

Дополнительно:
MediaInfo ▼Text
Общее
Полное имя :M:Мульт-СалютМульт-Салют.DVDRipdisk - 23Prikljuchenija Vasi Kurolesova.avi
Формат :AVI
Размер :394 MiB
Продолжительность :00:25:01.875
Общий поток :2 199 Kbps

Видео
Идентификатор :0
Формат :MPEG-4 Visual
Профиль формата :Advanced [email protected]
Параметр BVOP формата :2
Параметр Qpel формата :No
Параметр GMC формата :0
Параметр Matrix формата :Default (H.263)
Идентификатор кодека :XVID
Продолжительность :25mn 1s 875ms
Битрейт :1 997 Kbps
Ширина :720 pixels
Высота :544 pixels
Соотношение сторон :1.324
Частота кадров :23.976 fps
Глубина цвета :8 bits
Подвыборка цветности :4:2:0
Цветовое пространство :YUV
Тип развертки :Progressive
Бит/(Пиксели*Кадры) :0.213
Размер потока :357 MiB (91%)
Библиотека кодирования :XviD0063

Аудио #1
Идентификатор :1
Формат :AC-3
Формат/Информация :Audio Coding 3
Идентификатор кодека :2000
Продолжительность :00:25:01.588
Вид битрейта :Constant
Битрейт :192 Kbps
Канал(ы) :2 channels
Расположение каналов :Front: L R
Частота :44.1 KHz
Битовая глубина :16 bits
Метод сжатия :Lossy
Размер потока :34.4 MiB (9%)



Тех. данные:
Качество:DVDRip
Продолжительность:00:25:05 час

Формат: AVI
Видео кодек: XviD
Аудио
ec61c62d47c8798781ef1c46220169c830a0ec51Мульт-Салют. 23 ч. из 30: Приключения Васи Куролесова/Приключения пингвиненка Лоло. Фильм 1,2,3 (В.Попов, Г.Сокольский, К.Ёсида, мульт..., 1981-1987) [DVDRip] Мульт-Салют. 23 ч. из 30: Приключения Васи Куролесова/Приключения пингвиненка Лоло. Фильм 1,2,3 (В.Попов, Г.Сокольский, К.Ёсида, мульт..., 1981-1987) [DVDRip] " />

Аплоадер: Админ, дата: 19-01-2013, 03:34, торрент скачан: 359 раз

Понравилась раздача? Посмотрите эти:
  • Приключения Васи Куролесова (Владимир Попов,мультфильм, короткометражка,198 ...
  • [Сборник] Приключения Васи Куролесова: В стране невыученных уроков, Верните ...
  • Мульт-Салют 3 ч. из 30: Верлиока/Опять двойка/Кошкин дом/Петя и Красная Шап ...
  • Мульт-Салют. 4 ч. из 30: Козленок, который считал до десяти/Малыш и Карлсон ...
  • Мульт-Салют. 5 ч. из 30: Ох и Ах/Слоненок и письмо/Возвращение блудного поп ...
  • Мульт-Салют. 13 ч. из 30: Чуня/Умка/Умка ищет друга/Терем-теремок/Просто та ...
  • Мульт-Салют. 14 ч. из 30: Аленький цветочек/Сестрица Аленушка и братец Иван ...
  • Мульт-Салют. 16 ч. из 30: Снегурочка/Гадкий утёнок/Свинья-копилка/Дюймовочк ...
  • Мульт-Салют. 18 ч. из 30: Непослушный котёнок/Храбрый заяц/Вот так тигр!/Ка ...
  • Мульт-Салют. 19 ч. из 30: Новогодняя ночь/Золотая антилопа/Вовка в Тридевят ...
  • Мульт-Салют. 20 ч. из 30: 38 попугаев (ч. 1-10 (из 10))/Поросёнок в колючей ...
  • Мульт-Салют. 21 ч. из 30: Чудесный колокольчик/Когда зажигаются елки/Утёнок ...
  • Мульт-Салют. 22 ч. из 30: Необыкновенный матч/Старые знакомые/Шайбу! Шайбу! ...
  • [Сборник] Трое из Простоквашино: Каникулы в Простоквашино; Зима в Простоква ...
  • Мульт-Салют. 25 ч. из 30: Высокая горка/Колобок/Машенька и медведь/Чьи в ле ...
  • Мульт-Салют. 26 ч. из 30: Волшебный магазин/Топтыжка/В стране невыученных у ...
  • Мульт-Салют. 27 ч. из 30: Орлиное перо/Чемпион/Чужой голос/Зай и Чик/Два жа ...
  • Мульт-Салют. 30 ч. из 30: Муха-цокотуха/Каникулы Бонифация/Кот в сапогах/Ай ...
  • Мульт-Салют 1 ч. из 30: Павлиний хвост/Цветик-семицветик/Мойдодыр/Необыкнов ...
  • Мульт-Салют. 2 ч. из 30: Серая шейка/Соломенный бычок/Тараканище/Дядя Миша/ ...
  • Мульт-Салют. 7 ч. из 30: Приключения Буратино/Чиполлино (Иван Иванов-Вано, ...
  • Мульт-Салют. 8 часть из 30: Трое из Простоквашино/Каникулы в Простоквашино/ ...
  • Мульт-Салют. 9 ч. из 30: В некотором царстве…/Снежная королева (Иван Иванов ...
  • Мульт-Салют. 11 часть из 30: Царевна-лягушка/Конек-Горбунок (Михаил Цеханов ...
  • Мульт-Салют. 15 ч. из 30: Первый урок/Варежка/Бременские музыканты/По следа ...
  • Информация
    Посетители, находящиеся в группе Гости, не могут оставлять комментарии к данной публикации.