вход на сайт

Имя пользователя :
Пароль :

Восстановление пароля Регистрация
Мульт-Салют. 21 ч. из 30: Чудесный колокольчик/Когда зажигаются елки/Утёнок, который не умел играть в футбол/По дороге с облаками/Подарок для слона/Клад/Крылатый, мохнатый да масленый (З. и В.Брумберг...и др., мульт..., 1949-1990) [DVDRip]
Рейтинг:
(голосов: 1)



[img]{THEME}/images/logopost.png[/img]



Чудесный колокольчик (Зинаида Брумберг, Валентина Брумберг, мультфильм, короткометражка, 1949) [DVDRip, Не требуется ▼
Чудесный колокольчик

Год выпуска: 1949
Страна: СССР
Производство: Союзмультфильм
Жанр: мультфильм, короткометражка

Режиссёр: Зинаида Брумберг, Валентина Брумберг
В ролях: Владимир Готовцев, Т. Цыганок, Галина Новожилова, Вера Бендина, Александра Денисова
, Михаил Яншин

Перевод: Не требуется
Субтитры: Отсутствуют

Описание:
По мотивам русских народных сказок.


"Скриншоты" ▼

Дополнительно:
MediaInfo ▼Text
Общее
Полное имя :M:Мульт-СалютМульт-Салют.DVDRipdisk - 21Chudesnyj kolokolchik.avi
Формат :AVI
Размер :301 MiB
Продолжительность :00:19:14.028
Общий поток :2 189 Kbps

Видео
Идентификатор :0
Формат :MPEG-4 Visual
Профиль формата :Advanced [email protected]
Параметр BVOP формата :2
Параметр Qpel формата :No
Параметр GMC формата :0
Параметр Matrix формата :Default (H.263)
Идентификатор кодека :XVID
Продолжительность :19mn 14s 28ms
Битрейт :1 987 Kbps
Ширина :720 pixels
Высота :544 pixels
Соотношение сторон :1.324
Частота кадров :23.976 fps
Глубина цвета :8 bits
Подвыборка цветности :4:2:0
Цветовое пространство :YUV
Тип развертки :Progressive
Бит/(Пиксели*Кадры) :0.212
Размер потока :273 MiB (91%)
Библиотека кодирования :XviD0063

Аудио #1
Идентификатор :1
Формат :AC-3
Формат/Информация :Audio Coding 3
Идентификатор кодека :2000
Продолжительность :00:19:13.741
Вид битрейта :Constant
Битрейт :192 Kbps
Канал(ы) :2 channels
Расположение каналов :Front: L R
Частота :44.1 KHz
Битовая глубина :16 bits
Метод сжатия :Lossy
Размер потока :26.4 MiB (9%)



Тех. данные:
Качество:DVDRip
Продолжительность:00:19:18 час

Формат: AVI
Видео кодек: XviD
Аудио кодек: AC3
Видео: 720 x 544 (4:3), 23.976 fps, 1 987 Kbps, 0.212 bit/pixel
Аудио : 44.1 K
78961e40e43ece59533dec50db0d4d6e24a3c7c9Мульт-Салют. 21 ч. из 30: Чудесный колокольчик/Когда зажигаются елки/Утёнок, который не умел играть в футбол/По дороге с облаками/Подарок для слона/Клад/Крылатый, мохнатый да масленый (З. и В.Брумберг...и др., мульт..., 1949-1990) [DVDRip] Мульт-Салют. 21 ч. из 30: Чудесный колокольчик/Когда зажигаются елки/Утёнок, который не умел играть в футбол/По дороге с облаками/Подарок для слона/Клад/Крылатый, мохнатый да масленый (З. и В.Брумберг...и др., мульт..., 1949-1990) [DVDRip] " />

Аплоадер: Админ, дата: 19-01-2013, 03:20, торрент скачан: 359 раз

Понравилась раздача? Посмотрите эти:
  • Девочка в цирке (Зинаида Брумберг, Валентина Брумберг, Рисованный мультфиль ...
  • Мульт-Салют 3 ч. из 30: Верлиока/Опять двойка/Кошкин дом/Петя и Красная Шап ...
  • Мульт-Салют. 4 ч. из 30: Козленок, который считал до десяти/Малыш и Карлсон ...
  • Мульт-Салют. 5 ч. из 30: Ох и Ах/Слоненок и письмо/Возвращение блудного поп ...
  • Мульт-Салют. 16 ч. из 30: Снегурочка/Гадкий утёнок/Свинья-копилка/Дюймовочк ...
  • Мульт-Салют. 22 ч. из 30: Необыкновенный матч/Старые знакомые/Шайбу! Шайбу! ...
  • Мульт-Салют. 23 ч. из 30: Приключения Васи Куролесова/Приключения пингвинен ...
  • Мульт-Салют. 25 ч. из 30: Высокая горка/Колобок/Машенька и медведь/Чьи в ле ...
  • Мульт-Салют. 27 ч. из 30: Орлиное перо/Чемпион/Чужой голос/Зай и Чик/Два жа ...
  • Мульт-Салют. 2 ч. из 30: Серая шейка/Соломенный бычок/Тараканище/Дядя Миша/ ...
  • Мульт-Салют. 6 ч. из 30: Гуси-лебеди/Сказка о рыбаке и рыбке/Волк и семеро ...
  • Мульт-Салют. 8 часть из 30: Трое из Простоквашино/Каникулы в Простоквашино/ ...
  • Мульт-Салют. 9 ч. из 30: В некотором царстве…/Снежная королева (Иван Иванов ...
  • Мульт-Салют. 11 часть из 30: Царевна-лягушка/Конек-Горбунок (Михаил Цеханов ...
  • Чудесный колокольчик (Зинаида Брумберг, детский, короткометражка, 1949) [DV ...
  • Крылатый, мохнатый да масленый (Владимир Арбеков, мультфильм, короткометраж ...
  • [Сборник] Сказки про Машеньку: Машенькин концерт, Чудесный колокольчик, Маш ...
  • Стёпа-моряк (Валентина Брумберг, Зинаида Брумберг, Мультфильм, 1955) [DVDRi ...
  • Палка-выручалка (Зинаида Брумберг, Валентина Брумберг, Мультфильм, 1956) [D ...
  • Тайна далёкого острова (Валентина Брумберг, Зинаида Брумберг, мультфильм,1 ...
  • Информация
    Посетители, находящиеся в группе Гости, не могут оставлять комментарии к данной публикации.