вход на сайт

Имя пользователя :
Пароль :

Восстановление пароля Регистрация
Мульт-Салют. 20 ч. из 30: 38 попугаев (ч. 1-10 (из 10))/Поросёнок в колючей шубке/Слоненок пошел учиться/Слонёнок заболел/Слоненок-турист (И.Уфимцев, мульт..., 1977-1985, 1992) [DVDRip]
Рейтинг:
(голосов: 1)



[img]{THEME}/images/logopost.png[/img]



38 попугаев (Иван Уфимцев, мультфильм, короткометражка, семейный, 1976) [DVDRip, Не требуется ▼
38 попугаев

Год выпуска: 1976
Страна: СССР
Производство: Союзмультфильм
Жанр: мультфильм, короткометражка, семейный

Режиссёр: Иван Уфимцев
В ролях: Надежда Румянцева, Михаил Козаков, Василий Ливанов, Всеволод Ларионов

Перевод: Не требуется
Субтитры: Отсутствуют

Описание:
Веселые истории о забавных приключениях четырех друзей — болтливой Мартышки, застенчивого Слоненка, разумного Попугая и задумчивого Удава.Веселые истории о забавных приключениях четырех друзей — болтливой Мартышки, застенчивого Слоненка, разумного Попугая и задумчивого Удава.


"Скриншоты" ▼

Дополнительно:
MediaInfo ▼Text
Общее
Полное имя :M:Мульт-СалютМульт-Салют.DVDRipdisk - 2038 popugaev.avi
Формат :AVI
Размер :124 MiB
Продолжительность :00:07:55.684
Общий поток :2 187 Kbps

Видео
Идентификатор :0
Формат :MPEG-4 Visual
Профиль формата :Advanced [email protected]
Параметр BVOP формата :2
Параметр Qpel формата :No
Параметр GMC формата :0
Параметр Matrix формата :Default (H.263)
Идентификатор кодека :XVID
Продолжительность :7mn 55s 684ms
Битрейт :1 985 Kbps
Ширина :720 pixels
Высота :544 pixels
Соотношение сторон :1.324
Частота кадров :23.976 fps
Глубина цвета :8 bits
Подвыборка цветности :4:2:0
Цветовое пространство :YUV
Тип развертки :Progressive
Бит/(Пиксели*Кадры) :0.211
Размер потока :113 MiB (91%)
Библиотека кодирования :XviD0063

Аудио #1
Идентификатор :1
Формат :AC-3
Формат/Информация :Audio Coding 3
Идентификатор кодека :2000
Продолжительность :00:07:55.393
Вид битрейта :Constant
Битрейт :192 Kbps
Канал(ы) :2 channels
Расположение каналов :Front: L R
Частота :44.1 KHz
Битовая глубина :16 bits
Метод сжатия :Lossy
Размер потока :10.9 MiB (9%)



Тех. данные:
Качество:DVDRip
Продолжительность:00:07:54
ed4677b3cae306632f843bf867eeefb79d22e502Мульт-Салют. 20 ч. из 30: 38 попугаев (ч. 1-10 (из 10))/Поросёнок в колючей шубке/Слоненок пошел учиться/Слонёнок заболел/Слоненок-турист (И.Уфимцев, мульт..., 1977-1985, 1992) [DVDRip] Мульт-Салют. 20 ч. из 30: 38 попугаев (ч. 1-10 (из 10))/Поросёнок в колючей шубке/Слоненок пошел учиться/Слонёнок заболел/Слоненок-турист (И.Уфимцев, мульт..., 1977-1985, 1992) [DVDRip] " />

Аплоадер: Админ, дата: 16-01-2013, 22:42, торрент скачан: 359 раз

Понравилась раздача? Посмотрите эти:
  • Мульт-Салют 3 ч. из 30: Верлиока/Опять двойка/Кошкин дом/Петя и Красная Шап ...
  • Мульт-Салют. 4 ч. из 30: Козленок, который считал до десяти/Малыш и Карлсон ...
  • Мульт-Салют. 5 ч. из 30: Ох и Ах/Слоненок и письмо/Возвращение блудного поп ...
  • Мульт-Салют. 13 ч. из 30: Чуня/Умка/Умка ищет друга/Терем-теремок/Просто та ...
  • Мульт-Салют. 14 ч. из 30: Аленький цветочек/Сестрица Аленушка и братец Иван ...
  • Мульт-Салют. 16 ч. из 30: Снегурочка/Гадкий утёнок/Свинья-копилка/Дюймовочк ...
  • Мульт-Салют. 17 ч. из 30: Сказка о мертвой царевне и о семи богатырях/Стрел ...
  • Мульт-Салют. 18 ч. из 30: Непослушный котёнок/Храбрый заяц/Вот так тигр!/Ка ...
  • Мульт-Салют. 19 ч. из 30: Новогодняя ночь/Золотая антилопа/Вовка в Тридевят ...
  • Мульт-Салют. 22 ч. из 30: Необыкновенный матч/Старые знакомые/Шайбу! Шайбу! ...
  • Мульт-Салют. 23 ч. из 30: Приключения Васи Куролесова/Приключения пингвинен ...
  • Мульт-Салют. 25 ч. из 30: Высокая горка/Колобок/Машенька и медведь/Чьи в ле ...
  • Мульт-Салют. 26 ч. из 30: Волшебный магазин/Топтыжка/В стране невыученных у ...
  • Мульт-Салют. 27 ч. из 30: Орлиное перо/Чемпион/Чужой голос/Зай и Чик/Два жа ...
  • Мульт-Салют 1 ч. из 30: Павлиний хвост/Цветик-семицветик/Мойдодыр/Необыкнов ...
  • Мульт-Салют. 2 ч. из 30: Серая шейка/Соломенный бычок/Тараканище/Дядя Миша/ ...
  • Мульт-Салют. 6 ч. из 30: Гуси-лебеди/Сказка о рыбаке и рыбке/Волк и семеро ...
  • Мульт-Салют. 7 ч. из 30: Приключения Буратино/Чиполлино (Иван Иванов-Вано, ...
  • Мульт-Салют. 8 часть из 30: Трое из Простоквашино/Каникулы в Простоквашино/ ...
  • Мульт-Салют. 9 ч. из 30: В некотором царстве…/Снежная королева (Иван Иванов ...
  • Мульт-Салют. 11 часть из 30: Царевна-лягушка/Конек-Горбунок (Михаил Цеханов ...
  • Мульт-Салют. 15 ч. из 30: Первый урок/Варежка/Бременские музыканты/По следа ...
  • 38 попугаев (реж. И.Уфимцев, мультсериал, 1976-1991)
  • 38 попугаев (Иван Уфимцев, Мультфильм, 1976-1991 гг.) [DVDRip-AVC, Русский] ...
  • [Сборник] 38 попугаев / Попугай Кеша: старые и новые истории / TOM 1 (Иван ...
  • Информация
    Посетители, находящиеся в группе Гости, не могут оставлять комментарии к данной публикации.