вход на сайт

Имя пользователя :
Пароль :

Восстановление пароля Регистрация
Мульт-Салют. 18 ч. из 30: Непослушный котёнок/Храбрый заяц/Вот так тигр!/Как стать большим/Котенок по имени Гав (С. 1, эп. 1-5 (из 5))/Хитрая ворона/Котенок с улицы Лизюкова (И.Иванов-Вано, и др..., мульт..., 1953-1988) [DVDRip]
Рейтинг:
(голосов: 1)



[img]{THEME}/images/logopost.png[/img]



Непослушный котёнок (Мстислав Пащенко, мультфильм, короткометражка, детский, 1953) [DVDRip, Не требуется ▼
Непослушный котёнок

Год выпуска: 1953
Страна: СССР
Производство: Союзмультфильм
Жанр: мультфильм, короткометражка, детский

Режиссёр: Мстислав Пащенко
В ролях: Татьяна Барышева, Маргарита Докторова, Мария Яроцкая, Юлия Юльская, Владимир Ратомский

Перевод: Не требуется
Субтитры: Отсутствуют

Описание:
Котенок не послушался хозяйку, ушел в лес и, конечно, был наказан. Потому что заблудился, промок под дождем, натерпелся страху. Но с помощью добрых лесных зверушек все же вернулся домой и обещал больше никогда-никогда. ..


"Скриншоты" ▼

Дополнительно:
MediaInfo ▼Text
Общее
Полное имя :M:Мульт-СалютМульт-Салют.DVDRipdisk - 18Neposlushnyj kotenok.avi
Формат :AVI
Размер :160 MiB
Продолжительность :00:10:11.500
Общий поток :2 188 Kbps

Видео
Идентификатор :0
Формат :MPEG-4 Visual
Профиль формата :Advanced [email protected]
Параметр BVOP формата :2
Параметр Qpel формата :No
Параметр GMC формата :0
Параметр Matrix формата :Default (H.263)
Идентификатор кодека :XVID
Продолжительность :10mn 11s 500ms
Битрейт :1 985 Kbps
Ширина :720 pixels
Высота :544 pixels
Соотношение сторон :1.324
Частота кадров :30.000 fps
Глубина цвета :8 bits
Подвыборка цветности :4:2:0
Цветовое пространство :YUV
Тип развертки :Progressive
Бит/(Пиксели*Кадры) :0.169
Размер потока :145 MiB (91%)
Библиотека кодирования :XviD0063

Аудио #1
Идентификатор :1
Формат :AC-3
Формат/Информация :Audio Coding 3
Идентификатор кодека :2000
Продолжительность :00:10:11.125
Вид битрейта :Constant
Битрейт :192 Kbps
Канал(ы) :2 channels
Расположение каналов :Front: L R
Частота :44.1 KHz
Битовая глубина :16 bits
Метод сжатия :Lossy
Размер потока :14.0 MiB (9%)



Тех. данные:
Качество:DVDRip
Продолжительность:00:10:10 час
&n
d36385edd506ece680b8193be908eaba0ccf64caМульт-Салют. 18 ч. из 30: Непослушный котёнок/Храбрый заяц/Вот так тигр!/Как стать большим/Котенок по имени Гав (С. 1, эп. 1-5 (из 5))/Хитрая ворона/Котенок с улицы Лизюкова (И.Иванов-Вано, и др..., мульт..., 1953-1988) [DVDRip] Мульт-Салют. 18 ч. из 30: Непослушный котёнок/Храбрый заяц/Вот так тигр!/Как стать большим/Котенок по имени Гав (С. 1, эп. 1-5 (из 5))/Хитрая ворона/Котенок с улицы Лизюкова (И.Иванов-Вано, и др..., мульт..., 1953-1988) [DVDRip] " />

Аплоадер: Админ, дата: 16-01-2013, 21:41, торрент скачан: 359 раз

Понравилась раздача? Посмотрите эти:
  • [Сборник] Котёнок по имени Гав / Непослушный котёнок / Почему ушел котёнок ...
  • Котенок с улицы Лизюкова (Вячеслав Котеночкин, Мультфильм, 1988) [DVDRip-AV ...
  • Мульт-Салют 3 ч. из 30: Верлиока/Опять двойка/Кошкин дом/Петя и Красная Шап ...
  • Мульт-Салют. 5 ч. из 30: Ох и Ах/Слоненок и письмо/Возвращение блудного поп ...
  • Мульт-Салют. 13 ч. из 30: Чуня/Умка/Умка ищет друга/Терем-теремок/Просто та ...
  • Мульт-Салют. 16 ч. из 30: Снегурочка/Гадкий утёнок/Свинья-копилка/Дюймовочк ...
  • Мульт-Салют. 17 ч. из 30: Сказка о мертвой царевне и о семи богатырях/Стрел ...
  • Мульт-Салют. 22 ч. из 30: Необыкновенный матч/Старые знакомые/Шайбу! Шайбу! ...
  • Мульт-Салют. 24 ч. из 30: Машенькин концерт/Как Маша поссорилась с подушкой ...
  • Мульт-Салют. 25 ч. из 30: Высокая горка/Колобок/Машенька и медведь/Чьи в ле ...
  • Мульт-Салют. 26 ч. из 30: Волшебный магазин/Топтыжка/В стране невыученных у ...
  • Мульт-Салют. 27 ч. из 30: Орлиное перо/Чемпион/Чужой голос/Зай и Чик/Два жа ...
  • Мульт-Салют. 29 ч. из 30: Олень и волк/Три мешка хитростей/Храбрый олененок ...
  • Мульт-Салют. 2 ч. из 30: Серая шейка/Соломенный бычок/Тараканище/Дядя Миша/ ...
  • Мульт-Салют. 6 ч. из 30: Гуси-лебеди/Сказка о рыбаке и рыбке/Волк и семеро ...
  • Мульт-Салют. 7 ч. из 30: Приключения Буратино/Чиполлино (Иван Иванов-Вано, ...
  • Мульт-Салют. 9 ч. из 30: В некотором царстве…/Снежная королева (Иван Иванов ...
  • Мульт-Салют. 11 часть из 30: Царевна-лягушка/Конек-Горбунок (Михаил Цеханов ...
  • Котёнок по имени Гав (Лев Атаманов, Майя Мирошкина, Мультфильм, 1976-1982 г ...
  • [Сборник] Котёнок по имени Гав (Почему ушел котенок?Как котенку построили д ...
  • Информация
    Посетители, находящиеся в группе Гости, не могут оставлять комментарии к данной публикации.