вход на сайт

Имя пользователя :
Пароль :

Восстановление пароля Регистрация
Мульт-Салют. 17 ч. из 30: Сказка о мертвой царевне и о семи богатырях/Стрела улетает в сказку/Заколдованный мальчик/Грибок-теремок (И.Иванов-Вано, В.Полковников, А.Снежко-Блоцкая Л.Амальрик, мульт..., 1951-1958) [DVDRip]
Рейтинг:
(голосов: 1)



[img]{THEME}/images/logopost.png[/img]



Сказка о мертвой царевне и о семи богатырях (Иван Иванов-Вано, мультфильм, короткометражка, фэнтези, мелодрама, семейный, 1951) [DVDRip, Не требуется ▼
Сказка о мертвой царевне и о семи богатырях

Год выпуска: 1951
Страна: СССР
Производство: Союзмультфильм
Жанр: мультфильм, короткометражка, фэнтези, мелодрама, семейный

Режиссёр: Иван Иванов-Вано
В ролях: Отсутствуют

Перевод: Не требуется
Субтитры: Отсутствуют

Описание:
Мультипликационный фильм по сказке А. С. Пушкина. Новая жена царя хочет избавится от своей падчеридцы и отправляет её в лес на верную гибель. Царевна находит приют в лесной чаще у семи богатырей. Царица, узнав об этом, обманом отравляет её…


"Скриншоты" ▼

Дополнительно:
MediaInfo ▼Text
Общее
Полное имя :M:Мульт-СалютМульт-Салют.DVDRipdisk - 17Skazka o mertvoj carevne.avi
Формат :AVI
Размер :471 MiB
Продолжительность :00:29:57.129
Общий поток :2 201 Kbps

Видео
Идентификатор :0
Формат :MPEG-4 Visual
Профиль формата :Advanced [email protected]
Параметр BVOP формата :2
Параметр Qpel формата :No
Параметр GMC формата :0
Параметр Matrix формата :Default (H.263)
Идентификатор кодека :XVID
Продолжительность :29mn 57s 129ms
Битрейт :1 998 Kbps
Ширина :720 pixels
Высота :544 pixels
Соотношение сторон :1.324
Частота кадров :23.976 fps
Глубина цвета :8 bits
Подвыборка цветности :4:2:0
Цветовое пространство :YUV
Тип развертки :Progressive
Бит/(Пиксели*Кадры) :0.213
Размер потока :428 MiB (91%)
Библиотека кодирования :XviD0063

Аудио #1
Идентификатор :1
Формат :AC-3
Формат/Информация :Audio Coding 3
Идентификатор кодека :2000
Продолжительность :00:29:56.806
Вид битрейта :Constant
Битрейт :192 Kbps
Канал(ы) :2 channels
Расположение каналов :Front: L R
Частота :44.1 KHz
Битовая глубина :16 bits
Метод сжатия :Lossy
Размер потока :41.1 MiB (9%)



Тех. данные:
Качество:DVDRip
Продолж
396c9edfacccb4830094c2e3b96b10a1f8673799Мульт-Салют. 17 ч. из 30: Сказка о мертвой царевне и о семи богатырях/Стрела улетает в сказку/Заколдованный мальчик/Грибок-теремок (И.Иванов-Вано, В.Полковников, А.Снежко-Блоцкая Л.Амальрик, мульт..., 1951-1958) [DVDRip] Мульт-Салют. 17 ч. из 30: Сказка о мертвой царевне и о семи богатырях/Стрела улетает в сказку/Заколдованный мальчик/Грибок-теремок (И.Иванов-Вано, В.Полковников, А.Снежко-Блоцкая Л.Амальрик, мульт..., 1951-1958) [DVDRip] " />

Аплоадер: Админ, дата: 16-01-2013, 21:23, торрент скачан: 359 раз

Понравилась раздача? Посмотрите эти:
  • Сказка о мертвой царевне и о семи богатырях (Иван Иванов-Вано,мультфильм, к ...
  • Мульт-Салют 3 ч. из 30: Верлиока/Опять двойка/Кошкин дом/Петя и Красная Шап ...
  • Мульт-Салют. 5 ч. из 30: Ох и Ах/Слоненок и письмо/Возвращение блудного поп ...
  • Мульт-Салют. 13 ч. из 30: Чуня/Умка/Умка ищет друга/Терем-теремок/Просто та ...
  • Мульт-Салют. 14 ч. из 30: Аленький цветочек/Сестрица Аленушка и братец Иван ...
  • Мульт-Салют. 16 ч. из 30: Снегурочка/Гадкий утёнок/Свинья-копилка/Дюймовочк ...
  • Мульт-Салют. 18 ч. из 30: Непослушный котёнок/Храбрый заяц/Вот так тигр!/Ка ...
  • Мульт-Салют. 20 ч. из 30: 38 попугаев (ч. 1-10 (из 10))/Поросёнок в колючей ...
  • Мульт-Салют. 22 ч. из 30: Необыкновенный матч/Старые знакомые/Шайбу! Шайбу! ...
  • Мульт-Салют. 23 ч. из 30: Приключения Васи Куролесова/Приключения пингвинен ...
  • Мульт-Салют. 24 ч. из 30: Машенькин концерт/Как Маша поссорилась с подушкой ...
  • Мульт-Салют. 25 ч. из 30: Высокая горка/Колобок/Машенька и медведь/Чьи в ле ...
  • Мульт-Салют. 26 ч. из 30: Волшебный магазин/Топтыжка/В стране невыученных у ...
  • Мульт-Салют. 27 ч. из 30: Орлиное перо/Чемпион/Чужой голос/Зай и Чик/Два жа ...
  • Мульт-Салют 1 ч. из 30: Павлиний хвост/Цветик-семицветик/Мойдодыр/Необыкнов ...
  • Мульт-Салют. 2 ч. из 30: Серая шейка/Соломенный бычок/Тараканище/Дядя Миша/ ...
  • Мульт-Салют. 6 ч. из 30: Гуси-лебеди/Сказка о рыбаке и рыбке/Волк и семеро ...
  • Мульт-Салют. 7 ч. из 30: Приключения Буратино/Чиполлино (Иван Иванов-Вано, ...
  • Мульт-Салют. 8 часть из 30: Трое из Простоквашино/Каникулы в Простоквашино/ ...
  • Мульт-Салют. 9 ч. из 30: В некотором царстве…/Снежная королева (Иван Иванов ...
  • Мульт-Салют. 11 часть из 30: Царевна-лягушка/Конек-Горбунок (Михаил Цеханов ...
  • Сказки Пушкина. Сборник мультфильмов [1950-1984 г., мультфильм, DVDRip]
  • Заколдованный мальчик (Владимир Полковников, Александра Снежко-Блоцкая) [19 ...
  • Сказки А. С. Пушкина (Сказка о рыбаке и рыбке, Сказка о мертвой царевне и о ...
  • Сказка о Мальчише-Кибальчише (Александра Снежко-Блоцкая, Мультфильм, 1958) ...
  • Информация
    Посетители, находящиеся в группе Гости, не могут оставлять комментарии к данной публикации.