вход на сайт

Имя пользователя :
Пароль :

Восстановление пароля Регистрация
Мульт-Салют. 13 ч. из 30: Чуня/Умка/Умка ищет друга/Терем-теремок/Просто так/Птичка Тари/Жил-был пес/Гирлянда из малышей/Осторожно, обезьянки (ч.1-3) (Ю.Прытков и др., мульт..., 1968-1987) [DVDRip]
Рейтинг:
(голосов: 1)



[img]{THEME}/images/logopost.png[/img]



Чуня (Юрий Прытков, мультфильм, короткометражка, детский, 1968) [DVDRip, Не требуется ▼
Чуня

Год выпуска: 1968
Страна: СССР
Производство: Союзмультфильм
Жанр: мультфильм, короткометражка, детский

Режиссёр: Юрий Прытков
В ролях: Тамара Дмитриева, Маргарита Докторова, Евгений Леонов, Анатолий Папанов, Клара Румянова, Лидия Рюмина

Перевод: Не требуется
Субтитры: Отсутствуют

Описание:
Приключения поросенка Чуни.


"Скриншоты" ▼

Дополнительно:
MediaInfo ▼Text
Общее
Полное имя :M:Мульт-СалютМульт-Салют.DVDRipdisk - 13Chunja.avi
Формат :AVI
Размер :153 MiB
Продолжительность :00:09:44.626
Общий поток :2 197 Kbps

Видео
Идентификатор :0
Формат :MPEG-4 Visual
Профиль формата :Advanced [email protected]
Параметр BVOP формата :2
Параметр Qpel формата :No
Параметр GMC формата :0
Параметр Matrix формата :Default (H.263)
Идентификатор кодека :XVID
Продолжительность :9mn 44s 626ms
Битрейт :1 995 Kbps
Ширина :720 pixels
Высота :544 pixels
Соотношение сторон :1.324
Частота кадров :23.976 fps
Глубина цвета :8 bits
Подвыборка цветности :4:2:0
Цветовое пространство :YUV
Тип развертки :Progressive
Бит/(Пиксели*Кадры) :0.212
Размер потока :139 MiB (91%)
Библиотека кодирования :XviD0063

Аудио #1
Идентификатор :1
Формат :AC-3
Формат/Информация :Audio Coding 3
Идентификатор кодека :2000
Продолжительность :00:09:44.306
Вид битрейта :Constant
Битрейт :192 Kbps
Канал(ы) :2 channels
Расположение каналов :Front: L R
Частота :44.1 KHz
Битовая глубина :16 bits
Метод сжатия :Lossy
Размер потока :13.4 MiB (9%)



Тех. данные:
Качество:DVDRip
Продолжительность:00:09:46 час

Формат: AVI
Видео кодек: XviD
Аудио кодек: AC3
Видео: 720 x 544 (4:3), 23.976 fps, 1 995 Kbps, 0.212 bit/pixel
Аудио : 44.1 KHz, Audio Coding 3, 2 channels (Front: L R), 192 Kbps


Умка (Владимир Попов
8da0f590a4291e759f268a182061660ca296a138Мульт-Салют. 13 ч. из 30: Чуня/Умка/Умка ищет друга/Терем-теремок/Просто так/Птичка Тари/Жил-был пес/Гирлянда из малышей/Осторожно, обезьянки (ч.1-3) (Ю.Прытков и др., мульт..., 1968-1987) [DVDRip] Мульт-Салют. 13 ч. из 30: Чуня/Умка/Умка ищет друга/Терем-теремок/Просто так/Птичка Тари/Жил-был пес/Гирлянда из малышей/Осторожно, обезьянки (ч.1-3) (Ю.Прытков и др., мульт..., 1968-1987) [DVDRip] " />

Аплоадер: Админ, дата: 15-01-2013, 03:41, торрент скачан: 359 раз

Понравилась раздача? Посмотрите эти:
  • Мульт-Салют 3 ч. из 30: Верлиока/Опять двойка/Кошкин дом/Петя и Красная Шап ...
  • Мульт-Салют. 4 ч. из 30: Козленок, который считал до десяти/Малыш и Карлсон ...
  • Мульт-Салют. 5 ч. из 30: Ох и Ах/Слоненок и письмо/Возвращение блудного поп ...
  • Мульт-Салют. 14 ч. из 30: Аленький цветочек/Сестрица Аленушка и братец Иван ...
  • Мульт-Салют. 17 ч. из 30: Сказка о мертвой царевне и о семи богатырях/Стрел ...
  • Мульт-Салют. 18 ч. из 30: Непослушный котёнок/Храбрый заяц/Вот так тигр!/Ка ...
  • Мульт-Салют. 19 ч. из 30: Новогодняя ночь/Золотая антилопа/Вовка в Тридевят ...
  • Мульт-Салют. 22 ч. из 30: Необыкновенный матч/Старые знакомые/Шайбу! Шайбу! ...
  • Мульт-Салют. 23 ч. из 30: Приключения Васи Куролесова/Приключения пингвинен ...
  • Мульт-Салют. 25 ч. из 30: Высокая горка/Колобок/Машенька и медведь/Чьи в ле ...
  • Мульт-Салют. 26 ч. из 30: Волшебный магазин/Топтыжка/В стране невыученных у ...
  • Мульт-Салют. 27 ч. из 30: Орлиное перо/Чемпион/Чужой голос/Зай и Чик/Два жа ...
  • Мульт-Салют. 2 ч. из 30: Серая шейка/Соломенный бычок/Тараканище/Дядя Миша/ ...
  • Мульт-Салют. 7 ч. из 30: Приключения Буратино/Чиполлино (Иван Иванов-Вано, ...
  • Мульт-Салют. 8 часть из 30: Трое из Простоквашино/Каникулы в Простоквашино/ ...
  • Мульт-Салют. 9 ч. из 30: В некотором царстве…/Снежная королева (Иван Иванов ...
  • Мульт-Салют. 11 часть из 30: Царевна-лягушка/Конек-Горбунок (Михаил Цеханов ...
  • Чуня (Юрий Прытков, Мультфильм,1968 )[ DVDRip , не требуется]
  • [Сборник] Осторожно, обезьянки! (Леонид Шварцман, Майя Мирошкина, Мультфиль ...
  • [Сборник] Умка ищет друга. Халиф-аист, Кот Котофеевич, Осторожно, обезьян ...
  • Информация
    Посетители, находящиеся в группе Гости, не могут оставлять комментарии к данной публикации.