вход на сайт

Имя пользователя :
Пароль :

Восстановление пароля Регистрация
Мульт-Салют. 4 ч. из 30: Козленок, который считал до десяти/Малыш и Карлсон/Карлсон вернулся/Винни Пух/Винни Пух идет в гости/Винни Пух и день забот/Бобик в гостях у Барбоса (мульт., 1968-1977) [DVDRip]
Рейтинг:
(голосов: 1)



[img]{THEME}/images/logopost.png[/img]



Козленок, который считал до десяти (Владимир Дегтярев, мультфильм, короткометражка, 1968) [DVDRip, Не требуется ▼
Козленок, который считал до десяти

Год выпуска: 1968
Страна: СССР
Производство: Союзмультфильм
Жанр: мультфильм, короткометражка

Режиссёр: Владимир Дегтярев
В ролях: Георгий Вицин, Юлия Юльская, Михаил Яншин, Клара Румянова, Анатолий Папанов

Перевод: Не требуется
Субтитры: Отсутствуют

Описание:
Козленок пересчитал пассажиров парома, которых оказалось 10, то есть ровно столько, сколько мог вместить паром, а это значит — можно отправляться в путь. Вот как полезно знать арифметику и уметь считать.


"Скриншоты" ▼

Дополнительно:
MediaInfo ▼Text
Общее
Полное имя :M:Мульт-СалютМульт-Салют.DVDRipdisk - 4Kozlenok,kotoryj schital do desjati.avi
Формат :AVI
Размер :138 MiB
Продолжительность :00:08:50.488
Общий поток :2 183 Kbps

Видео
Идентификатор :0
Формат :MPEG-4 Visual
Профиль формата :Advanced [email protected]
Параметр BVOP формата :2
Параметр Qpel формата :No
Параметр GMC формата :0
Параметр Matrix формата :Default (H.263)
Идентификатор кодека :XVID
Продолжительность :8mn 50s 488ms
Битрейт :1 981 Kbps
Ширина :720 pixels
Высота :544 pixels
Соотношение сторон :1.324
Частота кадров :23.976 fps
Глубина цвета :8 bits
Подвыборка цветности :4:2:0
Цветовое пространство :YUV
Тип развертки :Progressive
Бит/(Пиксели*Кадры) :0.211
Размер потока :125 MiB (91%)
Библиотека кодирования :XviD0063

Аудио #1
Идентификатор :1
Формат :AC-3
Формат/Информация :Audio Coding 3
Идентификатор кодека :2000
Продолжительность :00:08:50.181
Вид битрейта :Constant
Битрейт :192 Kbps
Канал(ы) :2 channels
Расположение каналов :Front: L R
Частота :44.1 KHz
Битовая глубина :16 bits
Метод сжатия :Lossy
Размер потока :12.1 MiB (9%)



Тех. данные:
Качество:DVDRip
Продолжительность:00:08:58 час
&nbs
13410974ad095ddcc41b7c1e38fd14a0f929177cМульт-Салют. 4 ч. из 30: Козленок, который считал до десяти/Малыш и Карлсон/Карлсон вернулся/Винни Пух/Винни Пух идет в гости/Винни Пух и день забот/Бобик в гостях у Барбоса (мульт., 1968-1977) [DVDRip] Мульт-Салют. 4 ч. из 30: Козленок, который считал до десяти/Малыш и Карлсон/Карлсон вернулся/Винни Пух/Винни Пух идет в гости/Винни Пух и день забот/Бобик в гостях у Барбоса (мульт., 1968-1977) [DVDRip] " />

Аплоадер: Админ, дата: 12-01-2013, 21:29, торрент скачан: 359 раз

Понравилась раздача? Посмотрите эти:
  • Мульт-Салют. 5 ч. из 30: Ох и Ах/Слоненок и письмо/Возвращение блудного поп ...
  • Мульт-Салют. 13 ч. из 30: Чуня/Умка/Умка ищет друга/Терем-теремок/Просто та ...
  • Мульт-Салют. 14 ч. из 30: Аленький цветочек/Сестрица Аленушка и братец Иван ...
  • Мульт-Салют. 16 ч. из 30: Снегурочка/Гадкий утёнок/Свинья-копилка/Дюймовочк ...
  • Мульт-Салют. 18 ч. из 30: Непослушный котёнок/Храбрый заяц/Вот так тигр!/Ка ...
  • Мульт-Салют. 20 ч. из 30: 38 попугаев (ч. 1-10 (из 10))/Поросёнок в колючей ...
  • Мульт-Салют. 21 ч. из 30: Чудесный колокольчик/Когда зажигаются елки/Утёнок ...
  • Мульт-Салют. 22 ч. из 30: Необыкновенный матч/Старые знакомые/Шайбу! Шайбу! ...
  • Мульт-Салют. 23 ч. из 30: Приключения Васи Куролесова/Приключения пингвинен ...
  • Мульт-Салют. 25 ч. из 30: Высокая горка/Колобок/Машенька и медведь/Чьи в ле ...
  • Мульт-Салют. 26 ч. из 30: Волшебный магазин/Топтыжка/В стране невыученных у ...
  • Мульт-Салют. 27 ч. из 30: Орлиное перо/Чемпион/Чужой голос/Зай и Чик/Два жа ...
  • Мульт-Салют 1 ч. из 30: Павлиний хвост/Цветик-семицветик/Мойдодыр/Необыкнов ...
  • Мульт-Салют. 2 ч. из 30: Серая шейка/Соломенный бычок/Тараканище/Дядя Миша/ ...
  • Мульт-Салют. 6 ч. из 30: Гуси-лебеди/Сказка о рыбаке и рыбке/Волк и семеро ...
  • Мульт-Салют. 7 ч. из 30: Приключения Буратино/Чиполлино (Иван Иванов-Вано, ...
  • Мульт-Салют. 8 часть из 30: Трое из Простоквашино/Каникулы в Простоквашино/ ...
  • Мульт-Салют. 9 ч. из 30: В некотором царстве…/Снежная королева (Иван Иванов ...
  • Мульт-Салют. 11 часть из 30: Царевна-лягушка/Конек-Горбунок (Михаил Цеханов ...
  • Мульт-Салют. 15 ч. из 30: Первый урок/Варежка/Бременские музыканты/По следа ...
  • Малыш и Карлсон (дилогия) [1968,1970 / мультфильм / DVDRip]
  • Винни Пух [1969-1972гг,СССР, мультфильм, семейный, короткометражка, все сер ...
  • Бобик в гостях у Барбоса
  • Козленок, который считал до десяти (В. Дегтярев, отечественный мультфильм, ...
  • [Сборник] Как стать большим: Жёлтик;Про бегемота,который боялся прививок;Ко ...
  • Информация
    Посетители, находящиеся в группе Гости, не могут оставлять комментарии к данной публикации.