вход на сайт

Имя пользователя :
Пароль :

Восстановление пароля Регистрация
На задней парте / 4 выпуска из (4) (Угаров Валерий Михайлович, короткометражный мультфильм, 1978-1985) [DVDRip, не требуется]
Рейтинг:
(голосов: 1)



[img]{THEME}/images/logopost.png[/img]



На задней парте / 4 выпуска из (4)●Год выпуска: 1978-1985
●Страна: СССР
●Производство: Союзмультфильм
●Жанр: короткометражный мультфильм

●Режиссёр: Угаров Валерий Михайлович
●В ролях: Агарь Власова, Феликс Яворский, Людмила Гнилова, Всеволод Ларионов
●Перевод: оригинал
●Субтитры: нет●Описание: Комические истории о соседях по парте - отличнице Оле Знайкиной и двоечнике Бари Лейкине, которые сидя на задней парте, совершают различные путешествия по страницам своих тетрадей и учебников. КиноПоиск: 7.710 (88)
КиноПоиск: 7.607(77)
КиноПоиск: 7.584 (169)
КиноПоиск: 7.657 (156)●Качество: DVDRip
●Продолжительность одной серии: 00:10:00 час.
●Media Info ▼Text General

Format : Matroska
File size : 129 MiB
Duration : 10mn 6s
Overall bit rate : 1 777 Kbps
Encoded date : UTC 2009-09-03 19:43:22
Writing application : mkvmerge v2.4.1 (Use Me) built on Dec 5 2008 18:30:05
Writing library : libebml v0.7.7 + libmatroska v0.8.1

Video #1

ID : 1
Format : AVC
Format/Info : Advanced Video Codec
Format profile : [email protected]
Format settings, CABAC : Yes
Format settings, ReFrames : 9 frames
Muxing mode : Container [email protected]
Codec ID : V_MPEG4/ISO/AVC
Duration : 10mn 6s
Bit rate : 1 518 Kbps
Nominal bit rate : 1 550 Kbps
Width : 704 pixels
Height : 576 pixels
Display aspect ratio : 4:3
Original display aspect ratio : 1.222
Frame rate : 25.000 fps
Resolution : 24 bits
Colorimetry : 4:2:0
Scan type : Progressive
Bits/(Pixel*Frame) : 0.150
Stream size : 110 MiB (85%)
Writing library : x264 core 65 r1051M 549cc55
Encoding settings : cabac=1 / ref=9 / deblock=1:1:1 / analyse=0x3:0x133 / me=umh / subme=7 / psy_rd=1.0:0.0 / mixed_ref=1 / me_range=32 / chroma_me=1 / trellis=0 / 8x8dct=1 / cqm=0 / deadzone=21,11 / chroma_qp_offset=-2 / threads=3 / nr=0 / decimate=0 / mbaff=0 / bframes=5 / b_pyramid=1 / b_adapt=2 / b_bias=0 / direct=3 / wpredb=1 / keyint=250 / keyint_min=25 / scenecut=40(pre) / rc=2pass / bitrate=1550 / ratetol=1.0 / qcomp=0.60 / qpmin=10 / qpmax=51 / qpstep=4 / cplxblur=20.0 / qblur=0.5 / ip_ratio=1.40 / pb_ratio=1.30 / aq=1:1.00

Language : Russian

Audio #2

ID : 2
Format : AC-3
Format/Info : Audio Coding 3
Codec ID : A_AC3
Duration : 10mn 6s
Bit rate mode : Constant
Bit rate : 224 Kbps
Channel(s) : 2 channels
Channel positions : L R
Sampling rate : 48.0 KHz
Stream size : 16.2 MiB (13%)
Language : Russian
●Формат: MKV
●Видео кодек: AVC
●Аудио кодек: AС3
●Видео: MPEG-4 Part 10 (AVC/H.264), x264: 704x576 @ ~751х576 (4:3), 25.00fps, 1399 ~kbps, 0.150 Bits/Pixel
●Аудио: AC3: 48000 Hz, 2ch, 224 ~kbps


f83f3b4aa0adfdf9496d188cae3ad4af3f2f4fc2На задней парте / 4 выпуска из (4) (Угаров Валерий Михайлович, короткометражный мультфильм, 1978-1985) [DVDRip, не требуется] На задней парте / 4 выпуска из (4) (Угаров Валерий Михайлович, короткометражный мультфильм, 1978-1985) [DVDRip, не требуется] " />

Аплоадер: Админ, дата: 10-04-2012, 02:40, торрент скачан: 359 раз

Понравилась раздача? Посмотрите эти:
  • Akon / Get By [2013, Hip-Hop, MasterRip 4K]
  • FLO / NRG [2012, Pop, Dance, MasterRip]
  • UFC The Ultimate 100 Knockouts - PPV [MMA,2013, HDTVRip 720p]
  • UFC - Best Of 2012 Year In Review[MMA,2013, BDRip 540p]
  • Водитель / The Driver (Уолтер Хилл, Боевик, триллер, драма, криминал, 1978) ...
  • Неуловимый Люк / Lucky Luke (Джеймс Хат, Вестерн, 2009) [HDRip-AVC, Професс ...
  • Черное золото / Black Gold (Жан-Жак Анно, Драма, 2011) [BDRip-AVC, Професси ...
  • Левша (Иван Иванов-Вано, мультфильм, сказка, 1964 г.) [DVDRip-AVC, Оригинал ...
  • Му-му (Валентин Караваев, Мультфильм, 1987) [DVDRip-AVC, Оригинал]
  • Приготовление и начало / Prep And Landing (Кевин Детерс, мультфильм, коротк ...
  • Корпорация Монстров / Monsters, Inc. (Дэвид Сильверман, Ли Ункриш, Мультфил ...
  • [3D] Шевели ластами! / Sammys avonturen: De geheime doorgang (Бен Стассен / ...
  • [3D] Panasonic Demo Disc 3D 2010-2011 [BDrip-AVC 1080p-720p][Оригинал][Anam ...
  • Бросок кобры / G.I. Joe: The Rise of Cobra (Стивен Соммерс, фантастика, бое ...
  • Суперсооружения: Супертрубопровод / Megastructures: Super Pipeline (Докумен ...
  • Все голы Евро-2012 [Футбол,2012, HDTVRip]
  • Chelsea - Season Review 2011-12 / Челси - Обзор Сезона 2011-12 [ Футбол, 20 ...
  • Формула 1. Сезон 2012. Этап 13 из 20. Гран-При Италии, Квалификация. [2012 ...
  • Rihanna / Live At Rock In Rio [2010, R&B, TVRip]
  • Mylene Farmer / Du Temps [2011, Pop, HDTVRip]
  • Mylene Farmer / Bleu Noir [2011, Pop, HDTVRip]
  • Лекции о Рунах (Кораблёв Л. Л.) (саморазвитие,лекции о научной рунологии и ...
  • Суперкубок Испании 2010 / ответный матч+награждение, Барселона – Севилья / ...
  • Хитрая ворона (Галина Баринова, короткометражный мультфильм, 1980) [DVDRip, ...
  • Madonna / Girl Gone Wild [2012, Pop, HDTV]
  • Информация
    Посетители, находящиеся в группе Гости, не могут оставлять комментарии к данной публикации.