вход на сайт

Имя пользователя :
Пароль :

Восстановление пароля Регистрация
Смешарики. Начало (Денис Чернов, мультфильм, комедия, приключения, семейный, 2011) [DVDRip-AVC, Не требуется]
Рейтинг:
(голосов: 1)



[img]{THEME}/images/logopost.png[/img]



Смешарики. Начало
«Все по-взрослому!»

Год выпуска: 2011
Страна: Россия
Производство: Базелевс Продакшн, Студия Компьютерной анимации «Петербург»
Жанр: мультфильм, комедия, приключения, семейный

Режиссёр: Денис Чернов
В ролях: Вадим Бочанов, Сергей Мардарь, Антон Виноградов, Светлана Письмиченко, Владимир Постников, Михаил Черняк, Ксения Бржезовская, Михаил Хрусталев, Владимир Маслаков, Андрей Лёвин

Перевод: Не требуется
Субтитры: Отсутствуют

Описание: Такую экстремальную историю про Смешариков вы не могли себе представить: покинув свою уютную страну, Смешарики оказываются в современном мегаполисе в роли супергероев! Зачем? Они приняли очень важное для себя решение — спасти мир от нависшей угрозы. Этот «ответственный» шаг приводит к самому захватывающему приключению в их жизни!Дата премьеры (мир): 22 декабря 2011
Дата премьеры (РФ): 22 декабря 2011, «Каропрокат»
Качество: DVDRip-AVC
Продолжительность: 01:27:12

Формат: MKV
Видео кодек: x264
Аудио кодек: AC-3
Видео: [email protected] (2.35:1), 25.000 fps, ~1 940 kbps avg, 0.187 bit/pixel
Аудио: 48 kHz, 6 channels (Front: L C R, Side: L R, LFE), 320.00 kbps avg
MediaInfo ▼TextGeneral
Unique ID : 238961197429687554198047836666741372347 (0xB3C640A845F5EEF68967DECA3CF3B5BB)
Complete name : Smeshariki.Nachalo.2011.O.DVDRip-AVC.mkv
Format : Matroska
Format version : Version 2
File size : 1.37 GiB
Duration : 1h 26mn
Overall bit rate : 2 267 Kbps
Encoded date : UTC 2012-01-24 18:58:50
Writing application : mkvmerge v4.0.0 (The Stars were mine) сборка от Jun 6 2010 16:18:42
Writing library : libebml v1.0.0 + libmatroska v1.0.0

Video
ID : 1
Format : AVC
Format/Info : Advanced Video Codec
Format profile : [email protected]
Format settings, CABAC : Yes
Format settings, ReFrames : 8 frames
Codec ID : V_MPEG4/ISO/AVC
Duration : 1h 26mn
Bit rate : 1 940 Kbps
Width : 720 pixels
Height : 576 pixels
Display aspect ratio : 16:9
Frame rate : 25.000 fps
Standard : PAL
Color space : YUV
Chroma subsampling : 4:2:0
Bit depth : 8 bits
Scan type : Progressive
Bits/(Pixel*Frame) : 0.187
Stream size : 1.15 GiB (84%)
Writing library : x264 core 113 r1884 7313bb5
Encoding settings : cabac=1 / ref=8 / deblock=1:-2:-1 / analyse=0x3:0x113 / me=umh / subme=10 / psy=1 / psy_rd=1.10:0.20 / mixed_ref=1 / me_range=32 / chroma_me=1 / trellis=2 / 8x8dct=1 / cqm=0 / deadzone=21,11 / fast_pskip=0 / chroma_qp_offset=-3 / threads=6 / sliced_threads=0 / nr=0 / decimate=1 / interlaced=0 / constrained_intra=0 / bframes=4 / b_pyramid=2 / b_adapt=2 / b_bias=0 / direct=3 / weightb=1 / open_gop=0 / weightp=2 / keyint=250 / keyint_min=25 / scenecut=40 / intra_refresh=0 / rc_lookahead=60 / rc=2pass / mbtree=1 / bitrate=1940 / ratetol=1.0 / qcomp=0.60 / qpmin=0 / qpmax=69 / qpstep=4 / cplxblur=20.0 / qblur=0.5 / ip_ratio=1.40 / aq=1:1.00
Default : No
Forced : No

Audio
ID : 2
Format : AC-3
Format/Info : Audio Coding 3
Mode extension : CM (complete main)
Codec ID : A_AC3
Duration : 1h 26mn
Bit rate mode : Constant
Bit rate : 320 Kbps
Channel(s) : 6 channels
Channel positions : Front: L C R, Side: L R, LFE
Sampling rate : 48.0 KHz
Bit depth : 16 bits
Compression mode : Lossy
Stream size : 198 MiB (14%)
Default : No
Forced : No

02739ab5bc2b5540f7b9ecd86ab1db28056cf9f8Смешарики. Начало (Денис Чернов, мультфильм, комедия, приключения, семейный, 2011) [DVDRip-AVC, Не требуется] Смешарики. Начало (Денис Чернов, мультфильм, комедия, приключения, семейный, 2011) [DVDRip-AVC, Не требуется] " />

Аплоадер: Админ, дата: 14-02-2012, 04:39, торрент скачан: 359 раз

Понравилась раздача? Посмотрите эти:
  • FLO / NRG [2012, Pop, Dance, MasterRip]
  • Скуби-Ду! Маска голубого сокола / Scooby-Doo! Mask of the Blue Falcon (Майк ...
  • Зубная фея 2 / Tooth Fairy 2 (Алекс Замм, комедия, семейный, 2012) [BDRip 7 ...
  • Элвин и бурундуки 3 / Alvin and the Chipmunks: Chip-Wrecked (Майк Митчел, м ...
  • Смурфики / The Smurfs (Раджа Госнелл, Мультфильм, фэнтези, комедия, приключ ...
  • Му-му (Валентин Караваев, Мультфильм, 1987) [DVDRip-AVC, Оригинал]
  • Кунг-фу Панда 2 / Kung Fu Panda 2 (Дженнифер Ю, мультфильм, боевик, комеди ...
  • Смешарики. Начало (Денис Чернов, мультфильм, комедия, приключения, семейный ...
  • [3D] Тайна красной планеты / Mars Needs Moms (Саймон Уэллс, мультфильм, фан ...
  • [3D] Смешарики. Начало (Денис Чернов, Мультфильм, 2011) [BDrip, Дублированн ...
  • [3D] Кот и цыплёнок / I Tawt I Taw а Puddy Tat (Мэттью ОКаллаган / Matthew ...
  • Смешарики. Начало (Денис Чернов, Мелодрама, 2011) [BDRip 720p, Не требуется ...
  • Смешарики. Начало (Денис Чернов, Мелодрама, 2011) [BDRip 1080p, Не требуетс ...
  • Джок / Jock (Дункан МакНили, мультфильм, комедия, приключения, семейный, 20 ...
  • Chelsea - Season Review 2011-12 / Челси - Обзор Сезона 2011-12 [ Футбол, 20 ...
  • Военная разведка. Западный фронт // Эпизоды с 1 по 8 (из 8) (приключения, в ...
  • Ну, погоди! // Сезон 1, эпизоды с 1 по 16 (из 20) (мультфильм, комедия, се ...
  • Mylene Farmer / Du Temps [2011, Pop, HDTVRip]
  • Mylene Farmer / Bleu Noir [2011, Pop, HDTVRip]
  • Тэд Джонс и Затерянный город 3D / Las aventuras de Tadeo Jones (Энрике Гато ...
  • СчастливоСпасибоЕщеПожалуйста / HappyThankYouMorePlease (Джош Рэднор / Josh ...
  • Портрет в сумерках (Ангелина Никонова, драма, мелодрама, 2011) [DVDRip-AVC, ...
  • Смешарики. Начало (Денис Чернов, мультфильм, комедия, приключения, семейный ...
  • Смешарики. Начало (Денис Чернов, мультфильм, комедия, 2011) [BDRip, Не треб ...
  • Смешарики. Начало (Денис Чернов, мультфильм, комедия, семейный, 2011) [HDRi ...
  • Информация
    Посетители, находящиеся в группе Гости, не могут оставлять комментарии к данной публикации.