вход на сайт

Имя пользователя :
Пароль :

Восстановление пароля Регистрация
[Сборник] В яранге горит огонь / Двенадцать месяцев (Ольга Ходатаева, Иван Иванов-Вано, мультфильм, 1956 г.) [DVDRip-AVC, Русский]
Рейтинг:
(голосов: 1)



[img]{THEME}/images/logopost.png[/img]



В яранге горит огонь

Год выпуска: 1956 г.
Страна: СССР
Производство: СоюзМультфильм
Жанр: Мультфильм, короткометражка, семейный

Режиссёр: Ольга Ходатаева

Язык: Русский
Субтитры: Нет

Фильм по мотивам северных народных сказок. Он рассказывает о непослушных детях, в момент беды, не задумываясь, бросившихся на поиски и спасение мамы.
7.30 (9) 7.750 (87)
Качество: DVDRip-AVC
Продолжительность: 00:20:13 час.

Формат: MKV
Видео кодек: H264
Аудио кодек: AC3
Видео: 718x556 (1.378) @ 766x556, 25.000 fps, AVC, ~2227 Kbps, 0.223 bits/pixel
Аудио: 48 kHz, Dolby Digital (AC-3) Surround 5.1, 6 ch, 448 kbps




Двенадцать месяцев

Год выпуска: 1956 г.
Страна: СССР
Производство: СоюзМультфильм
Жанр: Мультфильм, короткометражка, семейный

Режиссёр: Иван Иванов-Вано, Михаил Ботов
В ролях: Эраст Гарин

Язык: Русский
Субтитры: Нет

Снежной холодной зимой, в январе, под вечер, когда люди сидят в домах, прислушиваясь к треску поленьев в печках, злая мачеха отправила свои падчерицу в лес, чтобы та набрала корзину подснежников. Бедной девочке ничего не оставалось делать, как исполнить прихоть мачехи…
7.60 (111) 7.986 (5 570)
Качество: DVDRip-AVC
Продолжительность: 00:52:44 час.

Формат: MKV
Видео кодек: H264
Аудио кодек: AC3
Видео: 718x556 (1.378) @ 766x556, 25.000 fps, AVC, ~2227 Kbps, 0.223 bits/pixel
Аудио: 48 kHz, Dolby Digital (AC-3) Surround 5.1, 6 ch, 448 kbps

Mediainfo ▼
TextGeneral
Unique ID : 213292671963271679475054052348974664628 (0xA076ACA482E30F4E9ECF0CDC2BD50BB4)
Complete name : В яранге горит огонь.mkv
Format : Matroska
Format version : Version 2
File size : 395 MiB
Duration : 20mn 13s
Overall bit rate : 2 729 Kbps
Encoded date : UTC 2011-11-13 14:56:36
Writing application : mkvmerge v5.0.1 (Es ist Sommer) built on Oct 9 2011 11:55:43
Writing library : libebml v1.2.2 + libmatroska v1.3.0
Video
ID : 1
Format : AVC
Format/Info : Advanced Video Codec
Format profile : [email protected]
Format settings, CABAC : Yes
Format settings, ReFrames : 16 frames
Codec ID : V_MPEG4/ISO/AVC
Duration : 20mn 13s
Bit rate : 2 227 Kbps
Width : 718 pixels
Height : 556 pixels
Display aspect ratio : 1.378
Original display aspect ratio : 1.377
Frame rate : 25.000 fps
Color space : YUV
Chroma subsampling : 4:2:0
Bit depth : 8 bits
Scan type : Progressive
Bits/(Pixel*Frame) : 0.223
Stream size : 322 MiB (82%)
Title : Nyc-2008 / rutracker.org / RG Multfilmy
Writing library : x264 core 119 r2106kMod 07efeb4
Encoding settings : cabac=1 / ref=16 / deblock=1:0:0 / analyse=0x3:0x113 / me=umh / subme=10 / psy=1 / fade_compensate=0.00 / psy_rd=1.00:0.10 / mixed_ref=1 / me_range=24 / chroma_me=1 / trellis=2 / 8x8dct=1 / cqm=0 / deadzone=21,11 / fast_pskip=0 / chroma_qp_offset=-3 / threads=6 / sliced_threads=0 / nr=0 / decimate=1 / interlaced=0 / bluray_compat=0 / constrained_intra=0 / bframes=12 / b_pyramid=2 / b_adapt=2 / b_bias=0 / direct=1 / weightb=1 / open_gop=0 / weightp=2 / keyint=250 / keyint_min=25 / scenecut=40 / intra_refresh=0 / rc_lookahead=60 / rc=crf / mbtree=1 / crf=18.4900 / qcomp=0.60 / qpmin=0 / qpmax=69 / qpstep=4 / ip_ratio=1.40 / aq=2:1.00
Language : Russian
Audio
ID : 2
Format : AC-3
Format/Info : Audio Coding 3
Mode extension : CM (complete main)
Codec ID : A_AC3
Duration : 20mn 13s
Bit rate mode : Constant
Bit rate : 448 Kbps
Channel(s) : 6 channels
Channel positions : Front: L C R, Side: L R, LFE
Sampling rate : 48.0 KHz
Bit depth : 16 bits
Compression mode : Lossy
Stream size : 64.8 MiB (16%)
Language : Russian
[hr]
General
Unique ID : 171114333628148782266413661927908628824 (0x80BB6C01F47F40908E0C9B125CC0D958)
Complete name : Двенадцать месяцев.mkv
Format : Matroska
Format version : Version 2
File size : 987 MiB
Duration : 52mn 44s
Overall bit rate : 2 616 Kbps
Encoded date : UTC 2011-11-13 19:54:30
Writing application : mkvmerge v5.0.1 (Es ist Sommer) built on Oct 9 2011 11:55:43
Writing library : libebml v1.2.2 + libmatroska v1.3.0
Video
I
20777f90b5c06a806d596e88b38cae89906efdea[Сборник] В яранге горит огонь / Двенадцать месяцев (Ольга Ходатаева, Иван Иванов-Вано, мультфильм, 1956 г.) [DVDRip-AVC, Русский] [Сборник] В яранге горит огонь / Двенадцать месяцев (Ольга Ходатаева, Иван Иванов-Вано, мультфильм, 1956 г.) [DVDRip-AVC, Русский] " />

Аплоадер: Админ, дата: 15-12-2011, 19:30, торрент скачан: 359 раз

Понравилась раздача? Посмотрите эти:
  • FLO / NRG [2012, Pop, Dance, MasterRip]
  • Eminem / Rap God [2013, Rap, HDRip]
  • Justin Timberlake / TKO [2013, Pop, MasterRip]
  • UFC The Ultimate 100 Knockouts - PPV [MMA,2013, HDTVRip 720p]
  • Левша (Иван Иванов-Вано, мультфильм, сказка, 1964 г.) [DVDRip-AVC, Оригинал ...
  • Му-му (Валентин Караваев, Мультфильм, 1987) [DVDRip-AVC, Оригинал]
  • Кунг-фу Панда 2 / Kung Fu Panda 2 (Дженнифер Ю, мультфильм, боевик, комеди ...
  • Смешарики. Начало (Денис Чернов, мультфильм, комедия, приключения, семейный ...
  • Гуси-лебеди (Иван Иванов-Вано, Александра Снежко-Блоцкая, Мультфильм, 1949) ...
  • [3D] Кот и цыплёнок / I Tawt I Taw а Puddy Tat (Мэттью ОКаллаган / Matthew ...
  • Ледниковый период: Гигантское Рождество / Ice Age: A Mammoth Christmas (Кар ...
  • Чаббчаббы спасают Рождество / The Chubbchubbs Save Xmas (Коуди Камерон, мул ...
  • Джок / Jock (Дункан МакНили, мультфильм, комедия, приключения, семейный, 20 ...
  • Лига Чемпионов 2011-12 / 1/2 финала / Ответный матч / Барселона (Испания) - ...
  • Чемпионат Европы 2012 / 1/4 финала / Чехия - Португалия / Спорт 1 HD [Футбо ...
  • Чемпионат Европы 2012 / 1/2 финала / Португалия - Испания / Спорт 1 HD [Фу ...
  • Чемпионат Европы 2012 / 1/2 финала / Германия - Италия / Спорт 1 HD [Футбо ...
  • Чемпионат Европы 2012 / Финал / Испания - Италия / Спорт 1 HD [Футбол, 01. ...
  • Все голы Евро-2012 [Футбол,2012, HDTVRip]
  • Chelsea - Season Review 2011-12 / Челси - Обзор Сезона 2011-12 [ Футбол, 20 ...
  • Mylene Farmer / Du Temps [2011, Pop, HDTVRip]
  • Mylene Farmer / Bleu Noir [2011, Pop, HDTVRip]
  • 12 месяцев (Иван Иванов-Вано, Сказка, 1956) [DVDRip]
  • В яранге горит огонь (Ольга Ходатаева, Леонид Аристов, мультфильм, коротком ...
  • Двенадцать месяцев (Иван Иванов-Вано, Михаил Ботов, мультфильм, семейный, ...
  • Информация
    Посетители, находящиеся в группе Гости, не могут оставлять комментарии к данной публикации.