вход на сайт

Имя пользователя :
Пароль :

Восстановление пароля Регистрация
Му-му (Валентин Караваев, Мультфильм, 1987) [DVDRip-AVC, Оригинал]
Рейтинг:
(голосов: 1)



[img]{THEME}/images/logopost.png[/img]



Му-му

Год выпуска: 1987
Страна: СССР
Производство: Союзмультфильм
Жанр: Мультфильм

Режиссёр: Валентин Караваев
В ролях: Александр Калягин

Перевод: Оригинал Русский
Субтитры: Отсуствуют

Описание: По рассказу И. С. Тургенева. У старой барыни служит дворником глухонемой мужик Герасим. Герасиму нравится прачка Татьяна, однако барыня выдает ее замуж за пьяницу Капитона. Герасим спасает тонущую собачку и привязывается к ней. Но барыня приказывает утопить Муму за то, что она лает по ночам. Герасим топит Муму в Москва-реке и возвращается в деревнюКачество: DVDRip-AVC
Продолжительность:00:18:28

Формат: MKV
Видео кодек: AVC
Аудио кодек: AC-3
Видео: 712x574 (4:3) @ 760x574, 25.000 fps, AVC, ~2112 Kbps, 0.207 bits/pixel
Аудио: Russian, 48.0 KHz, AC3, 6 ch, 448 Kbps


"Скриншоты." ▼



"Тех.данные" ▼TextGeneral
Unique ID : 198510333957812463063117282831894144443 (0x9557B31BDDF1675FB9DA2E9C464965BB)
Complete name : C:torrentOwnerСказки русских писателейМу-му.mkv
Format : Matroska
Format version : Version 2
File size : 345 MiB
Duration : 18mn 28s
Overall bit rate : 2 611 Kbps
Encoded date : UTC 2011-12-05 17:52:24
Writing application : mkvmerge v5.0.1 (Es ist Sommer) built on Oct 9 2011 11:55:43
Writing library : libebml v1.2.2 + libmatroska v1.3.0

Video
ID : 1
Format : AVC
Format/Info : Advanced Video Codec
Format profile : [email protected]
Format settings, CABAC : Yes
Format settings, ReFrames : 15 frames
Codec ID : V_MPEG4/ISO/AVC
Duration : 18mn 28s
Bit rate : 2 112 Kbps
Width : 712 pixels
Height : 574 pixels
Display aspect ratio : 4:3
Original display aspect ratio : 4:3
Frame rate : 25.000 fps
Color space : YUV
Chroma subsampling : 4:2:0
Bit depth : 8 bits
Scan type : Progressive
Bits/(Pixel*Frame) : 0.207
Stream size : 279 MiB (81%)
Title : Nyc-2008 / rutracker.org / RG Multfilmy
Writing library : x264 core 119 r2106kMod 07efeb4
Encoding settings : cabac=1 / ref=15 / deblock=1:0:0 / analyse=0x3:0x113 / me=umh / subme=11 / psy=1 / fade_compensate=0.00 / psy_rd=1.00:0.10 / mixed_ref=1 / me_range=24 / chroma_me=1 / trellis=2 / 8x8dct=1 / cqm=0 / deadzone=21,11 / fast_pskip=0 / chroma_qp_offset=-3 / threads=6 / sliced_threads=0 / nr=0 / decimate=1 / interlaced=0 / bluray_compat=0 / constrained_intra=0 / bframes=8 / b_pyramid=2 / b_adapt=2 / b_bias=0 / direct=1 / weightb=1 / open_gop=0 / weightp=2 / keyint=250 / keyint_min=25 / scenecut=40 / intra_refresh=0 / rc_lookahead=60 / rc=crf / mbtree=1 / crf=18.0000 / qcomp=0.60 / qpmin=0 / qpmax=69 / qpstep=4 / ip_ratio=1.40 / aq=2:1.00
Language : Russian

Audio
ID : 2
Format : AC-3
Format/Info : Audio Coding 3
Mode extension : CM (complete main)
Codec ID : A_AC3
Duration : 18mn 28s
Bit rate mode : Constant
Bit rate : 448 Kbps
Channel(s) : 6 channels
Channel positions : Front: L C R, Side: L R, LFE
Sampling rate : 48.0 KHz
Bit depth : 16 bits
Compression mode : Lossy
Stream size : 59.2 MiB (17%)
Language : Russian





0eef3eed3935e35b85575177da6ba4a767d7bba4Му-му (Валентин Караваев, Мультфильм, 1987) [DVDRip-AVC, Оригинал] Му-му (Валентин Караваев, Мультфильм, 1987) [DVDRip-AVC, Оригинал] " />

Аплоадер: Админ, дата: 10-12-2011, 12:25, торрент скачан: 359 раз

Понравилась раздача? Посмотрите эти:
  • FLO / NRG [2012, Pop, Dance, MasterRip]
  • Eminem / Rap God [2013, Rap, HDRip]
  • Justin Timberlake / TKO [2013, Pop, MasterRip]
  • UFC The Ultimate 100 Knockouts - PPV [MMA,2013, HDTVRip 720p]
  • Экипаж / Flight (Роберт Земекис, Драма, 2012) [BDRip-AVC, Профессиональный ...
  • Цельнометаллическая оболочка / Full Metal Jacket (Стэнли Кубрик, драма, вое ...
  • [Сборник] В яранге горит огонь / Двенадцать месяцев (Ольга Ходатаева, Иван ...
  • [3D] LG Demo Disc 3D (Демо, 2011) [BDrip-AVC 1080p ][Оригинал][Anamorph Ov ...
  • [3D] Panasonic Demo Disc 3D 2010-2011 [BDrip-AVC 1080p-720p][Оригинал][Anam ...
  • [3D] Кот и цыплёнок / I Tawt I Taw а Puddy Tat (Мэттью ОКаллаган / Matthew ...
  • [3D] Мой кровавый Валентин / My Bloody Valentine (Патрик Люссье, ужасы, три ...
  • Чаббчаббы спасают Рождество / The Chubbchubbs Save Xmas (Коуди Камерон, мул ...
  • Ворон / The Raven (Джеймс МакТиг, Триллер, детектив, 2012) [BDRip 720p, Дуб ...
  • Возлюбленные / Les bien-aimés (Кристоф Оноре, Драма, 2011) [BDRip 720p, Дуб ...
  • Лига Чемпионов 2011-12 / 1/2 финала / Ответный матч / Барселона (Испания) - ...
  • Футбольный клуб / Чемпионат Европы 2012 / НТВ+ [Футбол, 08.06.2012, HDTVRip ...
  • Чемпионат Европы 2012 / 1/4 финала / Чехия - Португалия / Спорт 1 HD [Футбо ...
  • Чемпионат Европы 2012 / 1/2 финала / Португалия - Испания / Спорт 1 HD [Фу ...
  • Чемпионат Европы 2012 / 1/2 финала / Германия - Италия / Спорт 1 HD [Футбо ...
  • Все голы Евро-2012 [Футбол,2012, HDTVRip]
  • Chelsea - Season Review 2011-12 / Челси - Обзор Сезона 2011-12 [ Футбол, 20 ...
  • Mylene Farmer / Du Temps [2011, Pop, HDTVRip]
  • Mylene Farmer / Bleu Noir [2011, Pop, HDTVRip]
  • PBS: Природа – Гималаи / PBS: Nature – The Himalayas (Крис Морган, Докумен ...
  • Madonna / Girl Gone Wild [2012, Pop, HDTV]
  • Информация
    Посетители, находящиеся в группе Гости, не могут оставлять комментарии к данной публикации.