вход на сайт

Имя пользователя :
Пароль :

Восстановление пароля Регистрация
Котенок с улицы Лизюкова (Вячеслав Котеночкин, Мультфильм, 1988) [DVDRip-AVC, Оригинал]
Рейтинг:
(голосов: 1)



[img]{THEME}/images/logopost.png[/img]




Котёнок с улицы Лизюкова

Год выпуска: 1988 г.
Страна : СССР
Производство: Союзмультфильм
Жанр:Мультфильм, фантастика
Режиссёр:Вячеслав Котеночкин
Композитор:Владимир Мигуля
Текст песни: Виталий Злотников

Роли озвучивали:
Вячеслав Невинный — Котенок-бегемот
Ольга Аросева — Слониха
Владимир Сошальский,
Маргарита Корабельникова

Перевод: Оригинал (русский)
Субтитры: Нет
Описание:О том, как котенок хотел превратиться в зверя, которого бы все боялись..

Качество: DVDRip
Продолжительность: 00:09:17

Формат: MKV
Видео кодек: x264
Аудио кодек: A_AC3

Видео: 720x574 (4:3) =>768x574, 25.000 fps, 2154 Kbps, 0.208 bits/pixel
Аудио: 48 kHz, AC3, 6 ch, 448 Kbps
MediaInfo: ▼
TextОбщее
Полное имя : Котенок с улицы Лизюкова_1988_AVC.mkv
Формат : Matroska
Версия формата : Version 2
Размер файла : 176 Мбайт
Продолжительность : 9 м. 16 с.
Общий поток :2655 Кбит/сек
Название фильма :Nyc-2008 / rutracker.org / RG Multfilmy
Дата кодирования : UTC 2011-11-10 15:19:11
Программа кодирования : mkvmerge v5.0.1 (Es ist Sommer) built on Oct 9 2011 11:55:43
Библиотека кодирования : libebml v1.2.2 + libmatroska v1.3.0

Видео
Идентификатор : 1
Формат : AVC
Формат/Информация : Advanced Video Codec
Профиль формата :[email protected]
Параметр CABAC формата :Да
Параметр ReFrames формата : 16 кадров
Идентификатор кодека : V_MPEG4/ISO/AVC
Продолжительность : 9 м. 16 с.
Битрейт : 2154 Кбит/сек
Ширина : 720 пикселей
Высота : 574 пикселя
Соотношение сторон : 4:3
Частота кадров : 25,000 кадров/сек
Цветовое пространство : YUV
Субдискретизация насыщенности : 4:2:0
Битовая глубина :8 бит
Тип развёртки : Прогрессивная
Бит/(Пиксели*Кадры) : 0.208
Размер потока : 143 Мбайт (81%)
Библиотека кодирования : x264 core 119 r2106kMod 07efeb4
Настройки программы :cabac=1 / ref=16 / deblock=1:0:0 / analyse=0x3:0x113 / me=umh / subme=10 / psy=1 / fade_compensate=0.00 / psy_rd=1.00:0.10 / mixed_ref=1 / me_range=24 / chroma_me=1 / trellis=2 / 8x8dct=1 / cqm=0 / deadzone=21,11 / fast_pskip=0 / chroma_qp_offset=-3 / threads=6 / sliced_threads=0 / nr=0 / decimate=1 / interlaced=0 / bluray_compat=0 / constrained_intra=0 / bframes=13 / b_pyramid=2 / b_adapt=2 / b_bias=0 / direct=1 / weightb=1 / open_gop=0 / weightp=2 / keyint=250 / keyint_min=25 / scenecut=40 / intra_refresh=0 / rc_lookahead=60 / rc=crf / mbtree=1 / crf=19.9900 / qcomp=0.60 / qpmin=0 / qpmax=69 / qpstep=4 / ip_ratio=1.40 / aq=2:1.00
Язык : Russian

Аудио
Идентификатор : 2
Формат : AC-3
Формат/Информация : Audio Coding 3
Расширение режима : CM (complete main)
Идентификатор кодека : A_AC3
Продолжительность : 9 м. 16 с.
Вид битрейта : Постоянный
Битрейт : 448 Кбит/сек
Каналы : 6 каналов
Расположение каналов : Front: L C R, Side: L R, LFE
Частота : 48,0 КГц
Битовая глубина :16 бит
Метод сжатия : С потерями
Размер потока : 29,7 Мбайт (17%)
Язык : Russian



c2471f214fb2cb445ef1e928cc82493568a841caКотенок с улицы Лизюкова (Вячеслав Котеночкин, Мультфильм, 1988) [DVDRip-AVC, Оригинал] Котенок с улицы Лизюкова (Вячеслав Котеночкин, Мультфильм, 1988) [DVDRip-AVC, Оригинал] " />

Аплоадер: Админ, дата: 15-11-2011, 23:25, торрент скачан: 359 раз

Понравилась раздача? Посмотрите эти:
  • Усатый нянь (Владимир Грамматиков, комедия, семейный, 1977) [DVDRip-AVC, Не ...
  • Гараж (Эльдар Рязанов, драма, комедия, 1979) [DVDRip-AVC, Оригинал (русский ...
  • Паровозик Тишка / Сезон 1, Эпизоды с 1 по 12 (из 12) (мультфильм, короткоме ...
  • [Сборник] Котёнок по имени Гав / Непослушный котёнок / Почему ушел котёнок ...
  • Максимка (Владимир Браун, приключения, 1952) [DVDRip-AVC, Не требуется]
  • Чемпионат Англии 2012-2013 / 25-й тур / Обзор / Суббота / BBC Sport [2013 г ...
  • Собачье сердце (Владимир Бортко, фантастика, драма, комедия, 1988) [BDRip-A ...
  • Бобик в гостях у Барбоса (Владимир Попов,комедия, мультфильм, короткометраж ...
  • Новогодняя песенка Деда Мороза (Александр Татарский,мультфильм, короткометр ...
  • Остров сокровищ (Давид Черкасский,мультфильм, приключения,1988)[DVDRip-AVC, ...
  • Опять двойка (Борис Степанцев, Евгений Райковский, мультфильм, 1957) [HDRip ...
  • Дикие собаки / Wild Dogs (Кэтрин Хикс, короткометражный анимационный фильм, ...
  • Иван Царевич и Серый Волк (Владимир Торопчин, мультфильм, семейный, 2011) [ ...
  • Безумные мелодии: Кажется я видел котика / Looney Tunes: I Tawt I Taw а Pud ...
  • Скрат: Потерянный орех / Scrat: Gone Nutty (Карлос Салдана, короткометражка ...
  • Мульт-Салют. 18 ч. из 30: Непослушный котёнок/Храбрый заяц/Вот так тигр!/Ка ...
  • Рейдер (Всеволод Аравин, драма, криминал, 2011) [BDRip 720p, оригинал]
  • История игрушек: Гавайские каникулы / Toy Story: Hawaiian Vacation (Гари ...
  • Лоракс: Серенада / The Lorax: Serenade (Кайл Балда, мультфильм, комедия, му ...
  • [Сборник] Котёнок по имени Гав (Почему ушел котенок?Как котенку построили д ...
  • Информация
    Посетители, находящиеся в группе Гости, не могут оставлять комментарии к данной публикации.