вход на сайт

Имя пользователя :
Пароль :

Восстановление пароля Регистрация
Смех и горе у Бела моря (Леонид Носырев, мультфильм, комедия, драма, 1988) [DVDRip, Русский]
Рейтинг:
(голосов: 1)



[img]{THEME}/images/logopost.png[/img]



Смех и горе у бела моря

♥ Год выпуска: 1988
♥ Страна: СССР
♥ Производство: Союзмультфильм
♥ Жанр: Мультипликация

♥ Режиссёр: Леонид Носырев
♥ В ролях: Евгений Леонов, Борис Новиков, Татьяна Васильева, Клара Румянова

♥ Перевод: Не требуется
♥ Субтитры: Нет

♥ Описание: Сказки о том как живет народ на берегу Белого моря в Архангельском крае и о вечных льдинах, без которых не обходится ни одна свадьба. Ведь льдина и шуба первое приданое любой невесты. А Медведи там молоком и семечками торгуют. А какие там песни поют заслушаешся... А еще там жил Ванька с матушкой да такие бедные, что решил он продать последнюю шапку и купить маме подарок. Но жалко ему стало кота и выменял он его на шапку, потом собаку на рубашку, а змею на пинжак с карманами. А змея то была не простая, а змеиного царя дочь и подарила она Ивану кольцо. А кольцо было не простое, а что не попросиш все сделает. Решил Иван жениться на царской дочке. И что только не пришлось пережить Ваньке, пока понял что такое царская дочка!?
А еще сказка о бабке Перепелихе, которая свом голосом Медведя свалила. Да про дерево апельсиновое, которое выросло среди моря. И быль о рыбаках, которые попав на остров, обнаружили, что лодку то их море забрало...



♥ Качество: DVDRip
♥ Продолжительность: 00:58:49 час

"Media Info" ▼TextC:UsersÍóðáåêDownloadsSmeh.i.gore.u.bela.morya.1988.XviD.DVDRip.avi
General
Complete name : C:UsersÍóðáåêDownloadsSmeh.i.gore.u.bela.morya.1988.XviD.DVDRip.avi
Format : AVI
Format/Info : Audio Video Interleave
File size : 1.37 GiB
Duration : 58mn 49s
Overall bit rate : 3 330 Kbps
Director : Rip By DJ_Zum Äëÿ ñàéòà Generalfilm.ru
Writing application : Lavf52.33.0
Video #0
ID : 0
Format : MPEG-4 Visual
Format profile : [email protected]
Format settings, BVOP : No
Format settings, QPel : No
Format settings, GMC : No warppoints
Format settings, Matrix : Default (H.263)
Codec ID : XVID
Codec ID/Hint : XviD
Duration : 58mn 49s
Bit rate : 3 127 Kbps
Width : 720 pixels
Height : 544 pixels
Display aspect ratio : 4:3
Frame rate : 25.000 fps
Resolution : 8 bits
Colorimetry : 4:2:0
Scan type : Progressive
Bits/(Pixel*Frame) : 0.319
Stream size : 1.28 GiB (94%)
Writing library : XviD 1.2.1 (UTC 2008-12-04)
Audio #1
ID : 1
Format : AC-3
Format/Info : Audio Coding 3
Format_Settings_ModeExtension : CM (complete main)
Codec ID : 2000
Duration : 58mn 49s
Bit rate mode : Constant
Bit rate : 192 Kbps
Channel(s) : 2 channels
Channel positions : Front: L R
Sampling rate : 48.0 KHz
Stream size : 80.8 MiB (6%)
Alignment : Aligned on interleaves
Interleave, duration : 32 ms (0.80 video frame)

♥ Формат: Avi
♥ Видео кодек: XviD
♥ Аудио кодек: AC3
♥ Видео: 720X544, 25.000 fps, XviD 1.2.1, 3 127 Kbps, 0.319 bit/pixel
♥ Аудио: 48.0 KHz, AC-3, 2 channels, Bit rate : ~192 Kbps


b27ba2c5d2c1aac2cdecd944d9014531b5972d43Смех и горе у Бела моря (Леонид Носырев, мультфильм, комедия, драма, 1988) [DVDRip, Русский] Смех и горе у Бела моря (Леонид Носырев, мультфильм, комедия, драма, 1988) [DVDRip, Русский] " />

Аплоадер: Админ, дата: 6-05-2012, 13:22, торрент скачан: 359 раз

Понравилась раздача? Посмотрите эти:
  • Орудие смерти / A-i-deul... (Ли Гю Ман, Триллер, криминал, 2011) [DVDRip, П ...
  • Мужество / Wymyk (Грег Зглински, драма, 2011) [DVDRip, Любительский (одного ...
  • Чемпионат Италии 2012-13 / 36-й тур / Рома — Кьево / НТВ+ [07.05.2013, SD, ...
  • [EN] Команда: На пути Аллаха / Takiye: Allah yolunda (2010, Бен Вербонг, тр ...
  • Тюремщик / Screwed (Рег Тревисс / Reg Traviss, Драма, 2011) [DVDRip , Люби ...
  • Плохая актриса / Bad Actress (Роберт Ли Кинг, комедия, 2011) [DVDRip, Профе ...
  • Формула 1 2011 / Этап 17 из 19 / Гран-При Индии / Гонка / Спорт 1 [30.10.20 ...
  • Tank Feat. T.I. & Kris Stephens / Compliments [2012, RnB,Hip-Hop, HDRip]
  • Последняя сказка Риты (Рената Литвинова, Фентези, драма, детектив, 2012) [D ...
  • Смех и горе у Бела моря (Леонид Носырев, мультфильм, комедия, драма, 1988) ...
  • Неделя в NBA с В.Гомельским / НТВ+ [28.06.2011, SD, XviD, RU, SAT]
  • Скуби-Ду: Нападение Пантазаура / Scooby-Doo! Legend of the Phantosaur (Дугл ...
  • Влюбленные (Валерий Бебко, Комедия, 2011) [DVDRip, Оригинал]
  • Чемпионат Англии 2011-12 / 31 тур / Ньюкасл - Ливерпуль / Спорт 1 [Футбол, ...
  • Хитрая ворона (Галина Баринова, короткометражный мультфильм, 1980) [DVDRip, ...
  • Чемпионат Англии 2011-12 / 35 тур / Манчестер Юнайтед - Эвертон / Спорт 1 [ ...
  • Романтики / The Romantics (Галт Нидерхоффер, Драма, мелодрама, комедия, 201 ...
  • ХХХ Летние Олимпийские Игры / Лёгкая атлетика / День 8 / Вечер [10.08.2012, ...
  • Инкубус / Inkubus (Гленн Чиано, Ужасы, 2011) [DVDRip, Профессиональный (мно ...
  • Крузо / Crusoe (Калеб Дешанель, Драма, 1988) [HDTVRip, Профессиональный (дв ...
  • Информация
    Посетители, находящиеся в группе Гости, не могут оставлять комментарии к данной публикации.