вход на сайт

Имя пользователя :
Пароль :

Восстановление пароля Регистрация
Хитрая ворона (Галина Баринова, короткометражный мультфильм, 1980) [DVDRip, не требуется]
Рейтинг:
(голосов: 1)



[img]{THEME}/images/logopost.png[/img]



Хитрая ворона●Год выпуска: 1980
●Страна: СССР
●Жанр: короткометражный мультфильм

●Режиссёр: Галина Баринова
●В ролях: Игорь Ясулович, Леонид Белозорович, Зинаида Нарышкина, Александр Вигдоров●Перевод: оригинал
●Субтитры: нет●Описание: Мультипликационный фильм о том, как хитрая Ворона решила поменяться образом жизни с домашним котом, но из этого ничего не вышло... КиноПоиск: 7.485 (163)●Продолжительность: 00:08:33 час.
●Качество: DVDRip
●Media Info ▼ General
Format : AVI
Format/Info : Audio Video Interleave
File size : 114 MiB
Duration : 8mn 33s
Overall bit rate : 1 857 Kbps
Video #0
ID : 0
Format : MPEG-4 Visual
Format profile : [email protected]
Format settings, BVOP : Yes
Format settings, QPel : No
Format settings, GMC : No warppoints
Format settings, Matrix : Default (H.263)
Muxing mode : Packed bitstream
Codec ID : XVID
Codec ID/Hint : XviD
Duration : 8mn 33s
Bit rate : 1 658 Kbps
Width : 704 pixels
Height : 528 pixels
Display aspect ratio : 4:3
Frame rate : 25.000 fps
Resolution : 24 bits
Colorimetry : 4:2:0
Scan type : Progressive
Bits/(Pixel*Frame) : 0.178
Stream size : 101 MiB (89%)
Writing library : XviD 1.2.1 (UTC 2008-12-04)
Audio #1
ID : 1
Format : AC-3
Format/Info : Audio Coding 3
Codec ID : 2000
Duration : 8mn 33s
Bit rate mode : Constant
Bit rate : 192 Kbps
Channel(s) : 2 channels
Channel positions : L R
Sampling rate : 48.0 KHz
Video delay : 12ms
Stream size : 11.8 MiB (10%)
Alignment : Split accross interleaves
Interleave, duration : 84 ms (2.10 video frames)●Формат: AVI
●Видео кодек: XviD
●Аудио кодек: AС3
●Видео: 704x528 (1.33:1), 25.000 fps, XviD ~1658 kbps avg, 0.178 bit/pixel
●Аудио: 48 kHz, AC3 Dolby Digital, 2/0 (L,R) ch, ~192 kbps


b3a06dba777d3bbcce9f9c6e1147cfa01cc1825dХитрая ворона (Галина Баринова, короткометражный мультфильм, 1980) [DVDRip, не требуется] Хитрая ворона (Галина Баринова, короткометражный мультфильм, 1980) [DVDRip, не требуется] " />

Аплоадер: Админ, дата: 10-04-2012, 19:32, торрент скачан: 359 раз

Понравилась раздача? Посмотрите эти:
  • Мужество / Wymyk (Грег Зглински, драма, 2011) [DVDRip, Любительский (одного ...
  • Чемпионат Италии 2012-13 / 36-й тур / Рома — Кьево / НТВ+ [07.05.2013, SD, ...
  • Званый ужин (Разбитые мечты) (Фридрих Эрмлер, сатирическая комедия, коротко ...
  • Плохая актриса / Bad Actress (Роберт Ли Кинг, комедия, 2011) [DVDRip, Профе ...
  • На задней парте / 4 выпуска из (4) (Угаров Валерий Михайлович, короткометра ...
  • Муравьишка-хвастунишка (Владимир Полковников, Мультфильм, 1961) [DVDRip, Не ...
  • Захватывающие рассказы Шрэкa / Shreks Thrilling Tales (Майк Митчел, Мультфи ...
  • Mike Posner / Cooler Than Me [2010, R&B, DVDRip]
  • Три богатыря на дальних берегах (Константин Феоктистов, мультфильм, комедия ...
  • В порту (Инесса Ковалевская, детский, мультфильм-мюзикл, короткометражка, 1 ...
  • Вам и не снилось... (Илья Фрэз, Мелодрама, 1980) [DVDRip, Оригинал]
  • Как Иван-Царевич жениться ходил, дурачок... (Галина Баринова, Мультфильм , ...
  • На краю земли (Константин Бронзит, Короткометражный мультфильм, 1998) [DVDR ...
  • Скуби-Ду: Нападение Пантазаура / Scooby-Doo! Legend of the Phantosaur (Дугл ...
  • Новогоднее приключение (Юлиан Калишер, короткометражный мультфильм, 1980 г. ...
  • Баллада Несси / The Ballad of Nessie (Стиви Вермерс, мультфильм, короткомет ...
  • Росомаха и лисица (Галина Тургенева, мультфильм, 1982) [DVDRip, не требуетс ...
  • Лебеди Непрядвы (Роман Давыдов, Мультфильм, короткометражка, история, 1980 ...
  • Дедушка Мазай и зайцы (Галина Тургенева, Мультфильм, короткометражка, 1980) ...
  • Джентльмен в коричневом / The Man in the Brown Suit (Алан Гринт, детектив, ...
  • Путаница (Галина Баринова, мультфильм, короткометражка, 1974) [DVDRip, русс ...
  • Волчище - серый хвостище (Галина Баринова, Мультфильм, корометражка, 1983) ...
  • Кто получит ананас? (Елена Баринова, Мультфильм, короткометражка, 1978) [DV ...
  • Три медведя (Аида Зябликова , Мультфильм, 1984 ) [DVDRip, Не требуется]
  • Инкубус / Inkubus (Гленн Чиано, Ужасы, 2011) [DVDRip, Профессиональный (мно ...
  • Информация
    Посетители, находящиеся в группе Гости, не могут оставлять комментарии к данной публикации.