вход на сайт

Имя пользователя :
Пароль :

Восстановление пароля Регистрация
Три банана (Михаил Ботов, Мультфильм, 1971) [SATRip, Не требуется]
Рейтинг:
(голосов: 1)



[img]{THEME}/images/logopost.png[/img]



Три банана

Год выпуска: 1971
Страна: СССР
Производство: Союзмультфильм
Жанр: Мультфильм

Режиссёр: Михаил Ботов
В ролях: Евгений Весник, Степан Бубнов, Александра Бабаева, Ирина Карташёва, Сергей Никифоров, Тамара Дмитриева

Перевод: Не требуется
Субтитры: Отсутствуют

Описание:
Мультфильм снят по сказке чешского писателя Зденека Слабого.
Герой мультфильма, маленький мальчик Петрик, встречает настоящего волшебника и с его помощью улетает на лифте к другим планетам...



Качество: SATRip
Продолжительность: 00:16:18

Формат: AVI
Видео кодек: XviD
Аудио кодек: AС3
Видео: 640x480 (1.33:1), 25 fps, XviD build 58 ~2394 kbps avg, 0.31 bit/pixel
Аудио: 48 kHz, AC3 Dolby Digital, 2/0 (L,R) ch, ~192 kbps

MediaInfo: ▼TextОбщее
Кол-во : 278
Кол-во потоков такого типа : 1
Тип потока : General
Тип потока : Общее
Идентификатор типа потока : 0
Inform : AVI: 303 Мбайт, 16 м.
Кол-во видеопотоков : 1
Кол-во аудиопотоков : 1
Video_Format_List : MPEG-4 Visual
Video_Format_WithHint_List : MPEG-4 Visual (XviD)
Видеокодеки : XviD
Audio_Format_List : AC-3
Audio_Format_WithHint_List : AC-3
Аудиокодеки : AC3
Полное имя : D:КазторкаРелизы для казторкиТри банана(SATRip).avi
Имя папки : D:КазторкаРелизы для казторки
Имя файла : Три банана(SATRip)
Расширение : avi
Формат : AVI
Формат : AVI
Формат/Информация : Audio Video Interleave
Формат/Используется в : avi
Коммерческое название : AVI
Интернет-тип носителя : video/vnd.avi
Чередующаяся : Yes
Кодек : AVI
Кодек : AVI
Кодек/Информация : Audio Video Interleave
Кодек/Используется в : avi
Размер файла : 317808640
Размер файла : 303 Мбайт
Размер файла : 303 Мбайт
Размер файла : 303 Мбайт
Размер файла : 303 Мбайт
Размер файла : 303,1 Мбайт
Продолжительность : 979200
Продолжительность : 16 м.
Продолжительность : 16 м. 19 с. 200 мс.
Продолжительность : 16 м.
Продолжительность : 00:16:19.200
Общий поток : 2596475
Общий поток : 2596 Кбит/сек
Размер потока : 1198279
Размер потока : 1,14 Мбайт (0%)
Размер потока : 1 Мбайт
Размер потока : 1,1 Мбайт
Размер потока : 1,14 Мбайт
Размер потока : 1,143 Мбайт
Размер потока : 1,14 Мбайт (0%)
Пропорции потока : 0.00377
Дата файла : UTC 2012-02-24 11:59:01.620
Дата файла (местная) : 2012-02-24 17:59:01.620
Дата изменения файла : UTC 2012-02-24 12:22:44.597
Дата изменения файла (местная) : 2012-02-24 18:22:44.597
Программа кодирования : VirtualDubMod 1.5.10.3 | www.virtualdub-fr.org || (build 2550/release)
Библиотека кодирования : VirtualDubMod build 2550/release
Библиотека кодирования : VirtualDubMod build 2550/release

Видео
Кол-во : 205
Кол-во потоков такого типа : 1
Тип потока : Video
Тип потока : Видео
Идентификатор типа потока : 0
Inform : 2395 Кбит/сек, 640*480 (4:3), в 25,000 кадров/сек, MPEG-4 Visual (XviD) (Advanced [email protected]) (BVOP1)
Идентификатор : 0
Идентификатор : 0
Формат : MPEG-4 Visual
Коммерческое название : MPEG-4 Visual
Профиль формата : Advanced [email protected]
Настройки формата : BVOP1
Параметр BVOP формата : 1
Параметр BVOP формата : 1
Параметр QPel формата : No
Параметр QPel формата : Нет
Параметр GMC формата : 0
Параметр GMC формата : Без точки перехода
Параметр матрицы формата : Default (H.263)
Параметр матрицы формата : Default (H.263)
Интернет-тип носителя : video/MP4V-ES
Идентификатор кодека : XVID
Идентификатор кодека/Подсказка : XviD
Идентификатор кодека/Ссылка : http://mediaarea.net/XVID
Кодек : XVID
Кодек : XviD
Кодек/Семейство : MPEG-4V
Кодек/Информация : XviD project
Кодек/Ссылка : http://www.xvid.org/Downloads.15.0.html
Кодек/CC : XVID
Профиль кодека : Advanced [email protected]
Настройки кодека : BVOP
Параметр пакетного потока данных кодека : No
Параметр BVOP кодека : Yes
Параметр QPel кодека : No
Параметр GMC кодека : 0
Параметр GMC кодека : Без точки перехода
Параметр матрицы кодека : Default (H.263)
Продолжительность : 979200
Продолжительность : 16 м.
Продолжительность : 16 м. 19 с. 200 мс.
Прод
b95e608ef63933ad4098a1f9c55653eea5f8e7d0Три банана (Михаил Ботов, Мультфильм, 1971) [SATRip, Не требуется] Три банана (Михаил Ботов, Мультфильм, 1971) [SATRip, Не требуется] " />

Аплоадер: Админ, дата: 24-02-2012, 18:40, торрент скачан: 359 раз

Понравилась раздача? Посмотрите эти:
  • T.I. feat. Lil Wayne / Wit Me [2013, Rap/Hip-Hop, HDCam]
  • Товарищеский матч 2013 / Украина - Израиль / Интер [Футбол, 14.08.2013, SD, ...
  • Чемпионат Англии 2012-13 / 28 тур / Тоттенхэм - Арсенал / Спорт 1 [Футбол, ...
  • Чемпионат Италии 2012-13 / 26-й тур / Интер - Милан / НТВ+ [Футбол, 24.02.2 ...
  • Чемпионат Италии 2012-13 / 26-й тур / Обзор матчей / НТВ+ [Футбол, 26.02.20 ...
  • Пути ненависти / Paths of Hate (Дамиан Ненов, мультфильм, короткометражка, ...
  • Злые птицы: Хэллоуин / Angry Birds: HamOWeen (Джей Ройвайнен, Мультфильм, к ...
  • Чемпионат Италии 2012-13 | 7-й тур | Милан - Интер | НТВ+ [Футбол, 07.10.20 ...
  • Чемпионат Италии 2012-13 / 9-й тур / Болонья — Интер / НТВ+ [Футбол, 28.10. ...
  • Sepultura / Attitude [1996, Death Metal, WebRip]
  • Любовь по расписанию / Поезд (Сергей Мезенцев, мелодрама, 2012) [HDTVRip, Н ...
  • Вечерний Ургант // Сезон 2. Выпуск 63 (ТВ-шоу, 20.12.2012) [SATRip, Не треб ...
  • Вечерний Ургант // Сезон 2. Выпуск 66 (ТВ-шоу, 25.12.2012) [SATRip, Не треб ...
  • Чемпионат Англии 2012-13 / 19 тур / Манчестер Юнайтед - Ньюкасл Юнайтед / ...
  • Экстрасенсы ведут расследование // Сезон 3, Выпуск 2 (20) (Паранормальное ш ...
  • [NG] Мегазаводы: Уильямс F1 / Megafactories: Williams F1 (документальный, н ...
  • Очень страшное кино 3 / Scary Movie 3 (Дэвид Цукер, Комедия, 2003) [HDTVRip ...
  • Голый пистолет: из архивов полиции! / The Naked Gun: From the Files of Poli ...
  • Очень страшное кино 4 / Scary Movie 4 [Unrated] (Дэвид Цукер , Комедия, 200 ...
  • Рассмеши комика // 3 сезон, 2 выпуск (ТВ-Шоу, Юмор, 24/03/2012) [SATRip, Ор ...
  • Comedy Club / Лучшее (ТВ-шоу, юмор, 07.04.2012) [IPTVRip, Не требуется]
  • Pitbull / Bon Bon [2010, Pop, HDRip]
  • Чемпионат Англии 2012-13 | 4-й тур | Обзор матчей субботы | Match Of The Da ...
  • Чемпионат Испании 2012-13 / 7-й тур / Обзор матчей / НТВ+ [Футбол, 08.10.20 ...
  • Чемпионат Италии 2012-13 / 9-й тур / Рома — Удинезе / НТВ+ [Футбол, 28.10.2 ...
  • Информация
    Посетители, находящиеся в группе Гости, не могут оставлять комментарии к данной публикации.