вход на сайт

Имя пользователя :
Пароль :

Восстановление пароля Регистрация
Привет, Скуби-Ду!/Aloha, Scooby-Doo! (Тим Молтби, 2005) [Мультфильм/приключения, DVDRip, Профессиональный (двухголосый)]
Рейтинг:
(голосов: 1)



[img]{THEME}/images/logopost.png[/img]



Привет, Скуби-Ду!/Aloha, Scooby-Doo!

Год выпуска: 2005
Жанр: Мультфильм, приключения
Выпущено: Warner Bros. / Hanna-Barbera, США
Продолжительность: 01:11:20
Перевод: Профессиональный, двухголосый
Режиссер: Тим Молтби
В ролях: Франк Велкер, Кейси Казем, Mindy Cohn, Серый DeLisle, Майкл Белл, Джеф Беннетт, Джон Ди Магджио

Описание:
Шегги, Скуби-Ду и его команда на этот раз отправляются на Гавайи, в Большую Кахуну, чтобы посмотреть соревнования по серфингу Ханахуны и найти ужасного монстра, который страстно хочет помешать состязаниям. Жители острова уверены, что постройка нового комплекса для отдыха на священной земле разозлит духов, но гости этому не верят… Когда армия маленьких злых демонов начинает нападать на серферов — пророчество сбывается.
Интересно, сумет ли Дафна разобраться с этим опасным делом прежде, чем попадет в жуткую переделку?!

IMDB: 5.5/10 (199)
КиноПоиск: 7.417 (24)

Качество: DVDRip
Формат: AVI
Видео кодек: XviD
Аудио кодек: AC3
Видео: Xvid 720x400 25.00fps
Audio: Dolby AC3 48000Hz stereo 256Kbps

Полная информация о видео и аудио:

General
Format : AVI
Format/Info : Audio Video Interleave
File size : 701 MiB
Duration : 1h 11mn
Overall bit rate : 1 373 Kbps
Writing application : VirtualDubMod 1.5.4.1 (build 2178/release)
Writing library : VirtualDubMod build 2178/release
Video
Format : MPEG-4 Visual
Format profile : Streaming [email protected]
Format settings, BVOP : Yes
Format settings, QPel : No
Format settings, GMC : No warppoints
Format settings, Matrix : Custom
Codec ID : XVID
Codec ID/Hint : XviD
Duration : 1h 11mn
Bit rate : 1 110 Kbps
Width : 720 pixels
Height : 400 pixels
Display aspect ratio : 16/9
Frame rate : 25.000 fps
Resolution : 24 bits
Colorimetry : 4:2:0
Scan type : Progressive
Bits/(Pixel*Frame) : 0.154
Stream size : 566 MiB (81%)
Writing library : XviD 1.1.2 (UTC 2006-11-01)
Audio
Format : AC-3
Format/Info : Audio Coding 3
Codec ID : 2000
Duration : 1h 11mn
Bit rate mode : Constant
Bit rate : 256 Kbps
Channel(s) : 2 channels
Channel positions : L R
Sampling rate : 48.0 KHz
Video delay : 8ms
Stream size : 131 MiB (19%)
Alignment : Split accross interleaves
Interleave, duration : 96 ms (2.40 video frames)
Interleave, preload duration : 96 ms
Language : English

Сэмпл (00:00:58; 8,2 Мб) на files.gameworld.kz

Проверено teevgenij


fda4b3b6442bc247f769acbb6ae1ca69fe88f3b4Привет, Скуби-Ду!/Aloha, Scooby-Doo! (Тим Молтби, 2005) [Мультфильм/приключения, DVDRip, Профессиональный (двухголосый)] Привет, Скуби-Ду!/Aloha, Scooby-Doo! (Тим Молтби, 2005) [Мультфильм/приключения, DVDRip, Профессиональный (двухголосый)] " />

Аплоадер: Админ, дата: 19-05-2009, 18:07, торрент скачан: 359 раз

Понравилась раздача? Посмотрите эти:
  • Скуби-Ду! Боязнь Сцены / Scooby-Doo! Stage Fright (Виктор Кук, Мультфильм, ...
  • Отдыхай, Скуби-Ду! / Chill Out, Scooby-Doo! (Джо Сичта, Mультфильм, комедия ...
  • Скуби-Ду! Боязнь Сцены / Scooby-Doo! Stage Fright (Виктор Кук, мультфильм, ...
  • Скуби-Ду! Боязнь Сцены / Scooby-Doo! Stage Fright (Виктор Кук, мультфильм, ...
  • Скуби-Ду! Маска голубого сокола / Scooby-Doo! Mask of the Blue Falcon (Майк ...
  • Скуби-Ду! Маска Синего Сокола / Scooby-Doo! Mask Of The Blue Falcon (Оливье ...
  • Скуби-Ду! Маска синего сокола / Scooby-Doo! Mask of the Blue Falcon (Оливье ...
  • Скуби-Ду и Упорный Оборотень / Scooby-Doo and the Reluctant Werewolf (Рэй П ...
  • Скуби-Ду Едет в Голливуд / Scooby-Doo Goes Hollywood (Рэй Паттерсон, мультф ...
  • Скуби-Ду и упорный оборотень (Скуби Ду и гонки монстров) / Scooby-Doo and t ...
  • Скуби Ду и Привидение колдуньи / Скуби Ду и Призрак Ведьмы / Scooby-Doo and ...
  • Скуби-Ду! Пираты на борту! / Scooby-Doo! Pirates Ahoy! (Чак Шитз, мультфиль ...
  • Скуби-Ду: Тайна Лохнесского чудовища / Scooby-Doo And The Loch Ness Monster ...
  • Скуби-Ду. Где моя мумия? / Scooby Doo: In Wheres My Mummy? (Джо Сичта / Joe ...
  • Scooby Doo Meets The Harlem Globetrotters / Скуби Ду и Гарлемские странники ...
  • Скуби-ду "Рождество" / Scooby-Doo "Christmas" (Скотт Джералдс, ужасы, комед ...
  • Скуби-Ду 4: Проклятье озерного монстра / Scooby-Doo! Curse of the Lake Mons ...
  • Скуби-Ду! Пираты на борту! / Scooby-Doo! Pirates Ahoy! (Чак Шитз , мультфил ...
  • Скуби-Ду! Пираты на борту! /Scooby-Doo! Pirates Ahoy!(Чак Шитз,Мультфильм, ...
  • Скуби-Ду: Нападение Пантазаура / Scooby-Doo! Legend of the Phantosaur (Дугл ...
  • Скуби-Ду: Нападение Пантазаура / Scooby-Doo! Legend of the Phantosaur (Дугл ...
  • Привет, Скуби-Ду / Aloha, Scooby-Doo (Тим Молтби, Kомедия, 2005) [BDRip, Пр ...
  • Все матчи Dream Team на Олимпийских играх в Барселоне [1992 г., Баскетбол, ...
  • Привет, Скуби-Ду / Aloha, Scooby-Doo (Тим Молтби, Мультфильм, комедия, дете ...
  • Скуби-Ду! Под куполом цирка / Big Top Scooby-Doo! (Бен Джонс, мультфильм, с ...
  • Информация
    Посетители, находящиеся в группе Гости, не могут оставлять комментарии к данной публикации.