вход на сайт

Имя пользователя :
Пароль :

Восстановление пароля Регистрация
Темный рыцарь: Возрождение легенды. Часть 2 / Batman: The Dark Knight Returns, Part 2 (Джей Олива, мультфильм, боевик, 2013) [HDRip, Дубляж]
Рейтинг:
(голосов: 1)



[img]{THEME}/images/logopost.png[/img]



•Темный рыцарь: Возрождение легенды. Часть 2 / Batman: The Dark Knight Returns, Part 2 •
♥ Год выпуска: 2013
♥ Страна: США
♥ Производство: DC Entertainment, Warner Bros. Animation
♥ Жанр: мультфильм, боевик

♥ Режиссёр: Джей Олива
♥ В ролях: Питер Уэллер, Эриель Винтер, Дэвид Селби, Пэйджет Брюстер, Майкл Эмерсон, Грэй ДеЛисл, Майкл МакКин, Фрэнк Уэлкер, Ди Брэдли Бейкер, Марк Вэлли

♥ Перевод: Дубляж
♥ Субтитры: Отсутствуют

♥ Описание: Тёмный рыцарь и юнный смельчак Кэрри Келли в образе Робина, наконец, освободили Готем-Сити и позволили лучу надежды проникнуть в царство террора, созданное в городе мутантами. Но стоило Бэтману вновь оказаться в центре внимания прессы, как проснулось гораздо худшее зло из Лечебницы Аркхэм - Джокер! Вечный смертельный враг Бэтмена, Джокер строит дьявольскую схему, которая бросит Бэтмена в самые тёмные глубины безумия. Между тем на горизонте возникает новая глобальная катастрофа Готема, и с ней приходит старый знакомый, Человек из Стали, держа Бэтмена на прицеле.


MediaInfo ▼
TextGeneral
Complete name : D:Temnyj.rycar.Vozrozhdenie.legendy.Chast.2.2013.D.HDRip.700MB.H_L.avi
Format : AVI
Format/Info : Audio Video Interleave
File size : 705 MiB
Duration : 1h 15mn
Overall bit rate : 1 301 Kbps
Movie name : Temnyj.rycar.Vozrozhdenie.legendy.Chast.2.2013.D.HDRip.
Director : IRONCLUB
Genre : Animation | Action
Writing application : Lavf54.59.103
Original source form/Name : Cartoon
Copyright : http://ironclub.tv/
Video #0
ID : 0
Format : MPEG-4 Visual
Format profile : [email protected]
Format settings, BVOP : No
Format settings, QPel : No
Format settings, GMC : No warppoints
Format settings, Matrix : Default (H.263)
Codec ID : XVID
Codec ID/Hint : XviD
Duration : 1h 15mn
Bit rate : 1 160 Kbps
Width : 720 pixels
Height : 400 pixels
Display aspect ratio : 16:9
Frame rate : 23.976 fps
Color space : YUV
Chroma subsampling : 4:2:0
Bit depth : 8 bits
Scan type : Progressive
Compression mode : Lossy
Bits/(Pixel*Frame) : 0.168
Stream size : 629 MiB (89%)
Writing library : XviD 64
Audio #1
ID : 1
Format : MPEG Audio
Format version : Version 1
Format profile : Layer 3
Codec ID : 55
Codec ID/Hint : MP3
Duration : 1h 15mn
Bit rate mode : Constant
Bit rate : 128 Kbps
Channel(s) : 2 channels
Sampling rate : 48.0 KHz
Compression mode : Lossy
Stream size : 69.4 MiB (10%)
Alignment : Aligned on interleaves
Interleave, duration : 24 ms (0.58 video frame)
Interleave, preload duration : 24 ms
♥ Качество: HDRip
♥ Продолжительность: 01:15:49

♥ Формат: AVI
♥ Видео кодек: XviD
♥ Аудио кодек: MP3
♥ Видео: 720x400 (16:9), 23.976 fps, XviD build 50 ~1 160 kbps avg, 0.168 bit/pixel
♥ Аудио1: 48 kHz, MPEG Layer 3, 2 ch, ~128.00 kbps avg


Релиз Группы "Virtus"

Стол заказов / Вступление в РГ / Благодарности, критика и другое


45d545d1c2a8decd13811aedc7e040fb35e7f7a0Темный рыцарь: Возрождение легенды. Часть 2 / Batman: The Dark Knight Returns, Part 2 (Джей Олива, мультфильм, боевик, 2013) [HDRip, Дубляж] Темный рыцарь: Возрождение легенды. Часть 2 / Batman: The Dark Knight Returns, Part 2 (Джей Олива, мультфильм, боевик, 2013) [HDRip, Дубляж] " />

Аплоадер: Админ, дата: 17-01-2013, 13:18, торрент скачан: 359 раз

Понравилась раздача? Посмотрите эти:
  • Погнали! / Getaway (Кортни Соломон, Боевик, Криминал, 2013) [HDRip, Професс ...
  • Погнали! / Getaway (Кортни Соломон, Боевик,Криминал, 2013) [HDRip, Професси ...
  • Посылка / The Package (Джесси Джонсон, боевик, 2013) [HDRip, Профессиональн ...
  • Посылка / The Package (Джесси Джонсон, боевик, 2013) [HDRip, Профессиональн ...
  • Темный рыцарь: Возрождение легенды. Часть 1 - 2 / Batman: The Dark Knight R ...
  • Чемпионат Италии 2012-13 / 36-й тур / Рома — Кьево / НТВ+ [07.05.2013, SD, ...
  • Темный рыцарь: Возрождение легенды. Часть 1 - 2 / Batman: The Dark Knight R ...
  • Цель Номер Один / Zero Dark Thirty (Кэтрин Бигелоу, боевик, триллер, драма, ...
  • Скуби-Ду! Маска Синего Сокола / Scooby-Doo! Mask Of The Blue Falcon (Оливье ...
  • Марко Макако / Marco Macaco (Жан Рабек, мультфильм, комедия, семейный, 2012 ...
  • Молодежный чемпионат мира 2012 (U-20). Четвертьфинал: Россия - Чехия [02.01 ...
  • Чемпионат Европы 2012 / Группа C / 1-й тур / Ирландия — Хорватия / ТРК Футб ...
  • Чемпионат Европы 2012 / Группа D / 1-й тур / Украина - Швеция / Спорт 1 [11 ...
  • Олимпиада 2012 / Мужчины / Группа D / 1-й тур / Испания — Япония / НТВ+ [Фу ...
  • Tank Feat. T.I. & Kris Stephens / Compliments [2012, RnB,Hip-Hop, HDRip]
  • Темный рыцарь: Возрождение легенды. Часть 2 / Batman: The Dark Knight Retur ...
  • Мулан 2 / Mulan II (Даррел Руни, Линн Сауферлэнд, мультфильм, мюзикл, боеви ...
  • Темный рыцарь: Возрождение легенды. Часть 1 / Batman: The Dark Knight Retur ...
  • Скуби-Ду: Нападение Пантазаура / Scooby-Doo! Legend of the Phantosaur (Дугл ...
  • Супершторм в Сиэтле / Seattle Superstorm (Джейсон Бурк, фантастика, боевик ...
  • Товарищеский матч 2012 / АмаЗулу (ЮАР) - Манчестер Юнайтед (Англия) / MU TV ...
  • Чемпионат России 2012-2013 / 1-й тур / Алания (Владикавказ) - Спартак (Моск ...
  • Олимпиада 2012 / Женщины, Мужчины / Плавание / Квалификация / НТВ+ [30.07.2 ...
  • Бэтмен: Возвращение Темного рыцаря. Часть 1 /Batman: The Dark Knight Return ...
  • Три балбеса / The Three Stooges (Бобби Фаррелли, Питер Фаррелли, Комедия, 2 ...
  • Информация
    Посетители, находящиеся в группе Гости, не могут оставлять комментарии к данной публикации.