вход на сайт

Имя пользователя :
Пароль :

Восстановление пароля Регистрация
Мулан 2 / Mulan II (Даррел Руни, Линн Сауферлэнд, мультфильм, мюзикл, боевик, комедия, семейный, 2004) [HDTVRip, Дубляж]
Рейтинг:
(голосов: 1)



[img]{THEME}/images/logopost.png[/img]



•Мулан 2 / Mulan II •
♥ Год выпуска: 2004
♥ Страна: США
♥ Производство: Walt Disney Pictures
♥ Жанр: мультфильм, мюзикл, боевик, комедия, семейный

♥ Режиссёр: Даррел Руни, Линн Сауферлэнд
♥ В ролях: Минг-На, Б.Д. Вонг, Марк Моусли, Люси Лью, Харви Фирштейн, Сандра О, Гедде Ватанабе, Лоурен Том, Джерри Тондо, Пэт Морита

♥ Перевод: Дубляж
♥ Субтитры: Отсутствуют

♥ Описание: Новое увлекательное путешествие с уже знакомыми героями — отважной китайской воительницей Мулан и ее верным другом Ли Шанем. На сей раз им, храбрым победителям монгольских орд, предстоит самая ответственная миссия в жизни. Это… свадьба.

Но, прежде чем Мулан и Ли Шань поженятся, они должны позаботиться и о чужом счастье, доставив трех китайских принцесс их женихам. Легкая задача? Не очень, если вам «помогает» самый легкомысленный дракон в мире Мушу, а коварные монголы уже затевают новые козни!


MediaInfo ▼
TextGeneral
Complete name : D:Mulan.II.2004..avi
Format : AVI
Format/Info : Audio Video Interleave
File size : 747 MiB
Duration : 1h 15mn
Overall bit rate : 1 384 Kbps
Writing application : VirtualDubMod 1.5.10.3 | (build 2550/release)
Writing library : VirtualDubMod build 2550/release
Video #0
ID : 0
Format : MPEG-4 Visual
Format profile : Advanced [email protected]
Format settings, BVOP : 1
Format settings, QPel : No
Format settings, GMC : No warppoints
Format settings, Matrix : Default (MPEG)
Codec ID : XVID
Codec ID/Hint : XviD
Duration : 1h 15mn
Bit rate : 1 247 Kbps
Width : 688 pixels
Height : 384 pixels
Display aspect ratio : 16:9
Frame rate : 25.000 fps
Color space : YUV
Chroma subsampling : 4:2:0
Bit depth : 8 bits
Scan type : Progressive
Compression mode : Lossy
Bits/(Pixel*Frame) : 0.189
Stream size : 673 MiB (90%)
Writing library : XviD 63
Audio #1
ID : 1
Format : MPEG Audio
Format version : Version 1
Format profile : Layer 3
Codec ID : 55
Codec ID/Hint : MP3
Duration : 1h 15mn
Bit rate mode : Constant
Bit rate : 128 Kbps
Channel(s) : 2 channels
Sampling rate : 48.0 KHz
Compression mode : Lossy
Stream size : 69.1 MiB (9%)
Alignment : Aligned on interleaves
Interleave, duration : 40 ms (1.00 video frame)
Interleave, preload duration : 504 ms
Writing library : LAME3.98r
Encoding settings : -m s -V 4 -q 2 -lowpass 17 -b 128
♥ Качество: HDTVRip | Сравнение скриншотов с этой раздачей
♥ Продолжительность: 01:15:27

♥ Формат: AVI
♥ Видео кодек: XviD
♥ Аудио кодек: MP3
♥ Видео: 688x384 (16:9), 25.000 fps, XviD 63 ~1 247 kbps avg, 0.189 bit/pixel
♥ Аудио1: 48.0 kHz, MPEG Layer 3, 2 ch, ~128 kbps

♥ Дата премьеры (мир): 3 ноября 2004



Релиз Группы "Virtus"

Стол заказов / Вступление в РГ / Благодарности, критика и другое



1872428a2b01c1585409322a20acca9ac4bdc40cМулан 2 / Mulan II (Даррел Руни, Линн Сауферлэнд, мультфильм, мюзикл, боевик, комедия, семейный, 2004) [HDTVRip, Дубляж] Мулан 2 / Mulan II (Даррел Руни, Линн Сауферлэнд, мультфильм, мюзикл, боевик, комедия, семейный, 2004) [HDTVRip, Дубляж] " />

Аплоадер: Админ, дата: 14-01-2013, 14:02, торрент скачан: 359 раз

Понравилась раздача? Посмотрите эти:
  • Вирус / Flu (Ким Сон Су, Драма, 2013) [HDTVRip, Любительский (двухголосый з ...
  • Воображариум / Imaginaerum (Стобе Харью, Фэнтези, приключения, мюзикл, драм ...
  • Родительский беспредел / Parental Guidance (Энди Фикмен, комедия, семейный, ...
  • Мулан 2 / Mulan II (Даррел Руни, Линн Сауферлэнд, Мультфильм, мюзикл, боеви ...
  • Мулан 2 / Mulan 2 (Даррел Руни, Линн Сауферлэнд, мультфильм, мюзикл, боевик ...
  • Мулан / Mulan (Даррел Руни, Линн Сауферлэнд, мультфильм, мюзикл, приключен ...
  • Магазин самоубийств / Le magasin des suicides (Патрис Леконт, Мультфильм, м ...
  • Скуби-Ду! Маска Синего Сокола / Scooby-Doo! Mask Of The Blue Falcon (Оливье ...
  • Марко Макако / Marco Macaco (Жан Рабек, мультфильм, комедия, семейный, 2012 ...
  • [Дилогия] Мулан 1-2 / Mulan 1-2 (Тони Бэнкрофт, Даррел Руни, Линн Сауферлэн ...
  • Чемпионат Европы 2012 / Группа D / 1-й тур / Украина - Швеция / Спорт 1 [11 ...
  • Tank Feat. T.I. & Kris Stephens / Compliments [2012, RnB,Hip-Hop, HDRip]
  • Холостячки / Bachelorette (Лесли Хэдланд, комедия, 2012) [HDRip, Дубляж]
  • [PSP VIDEO] Мулан / Mulan (мультфильм, 1998) [DVDRip, дублированный]
  • Мулан 2 / Mulan 2 (Даррел Руни, Линн Саузерлэнд, мультфильм, комедия, семей ...
  • Неделя в NBA с В.Гомельским / НТВ+ [28.06.2011, SD, XviD, RU, SAT]
  • Чемпионат Европы 2012 / Группа B / 1-й тур / Германия - Португалия / Спорт ...
  • Товарищеский матч 2012 / АмаЗулу (ЮАР) - Манчестер Юнайтед (Англия) / MU TV ...
  • Олимпиада 2012 / Женщины, Мужчины / Плавание / Квалификация / НТВ+ [30.07.2 ...
  • Крузо / Crusoe (Калеб Дешанель, Драма, 1988) [HDTVRip, Профессиональный (дв ...
  • Информация
    Посетители, находящиеся в группе Гости, не могут оставлять комментарии к данной публикации.