вход на сайт

Имя пользователя :
Пароль :

Восстановление пароля Регистрация
Легенда о рыцаре / El Cid: La leyenda (Хосе Позо, мультфильм, приключения, биография, 2003) [DVDRip, Дубляж]
Рейтинг:
(голосов: 1)



[img]{THEME}/images/logopost.png[/img]



•Легенда о рыцаре / El Cid: La leyenda •
♥ Год выпуска: 2003
♥ Страна: Испания
♥ Производство: Castelao Producciones
♥ Жанр: мультфильм, приключения, биография

♥ Режиссёр: Хосе Позо
♥ В ролях: Начо Кастаньо, Манель Фуэнтес, Санчо Грация, Карлос Латре, Лолес Леон, Мигель Пернас, Наталия Вербеке

♥ Перевод: Дубляж
♥ Субтитры: Отсутствуют

♥ Описание:
Сын кастильского дворянина Родриго — идеальный кандидат на роль героя. Он смелый, сильный, с хорошим чувством юмора, любимец придворных дам королевского двора. Дружба с наследником престола гарантирует Родриго блестящее будущее.

Только одно обстоятельство омрачает его дни при дворе. Отец возлюбленной Родриго, герцог Гормаз, считает, что его дочь — прекрасная Гимена, достойна лучшего жениха. Родриго оказывается в самом центре придворных интриг, и, неожиданно теряет все: лучшего друга, возлюбленную, честь, и оказывается изгнанным из Кастильи.

Далеко на чужбине его ждут невероятные приключения, грандиозные сражения и героические подвиги. В стремлении вернуть себе родину, честь и возлюбленную, Родриго вновь научится ценить дружбу, уважение и любовь


MediaInfo ▼
TextGeneral
Complete name : C:Legenda_o_ricare_DVDRip.avi
Format : AVI
Format/Info : Audio Video Interleave
File size : 700 MiB
Duration : 1h 20mn
Overall bit rate : 1 220 Kbps
Writing application : VirtualDubModRus 1.5.10.2 (build 2540/release)
Comment : Rip by Ронистекс
Video #0
ID : 0
Format : MPEG-4 Visual
Format settings, BVOP : 1
Format settings, QPel : No
Format settings, GMC : No warppoints
Format settings, Matrix : Default (H.263)
Muxing mode : Packed bitstream
Codec ID : DX50
Codec ID/Hint : DivX 5
Duration : 1h 20mn
Bit rate : 1 082 Kbps
Width : 640 pixels
Height : 352 pixels
Display aspect ratio : 16:9
Frame rate : 25.000 fps
Color space : YUV
Chroma subsampling : 4:2:0
Bit depth : 8 bits
Scan type : Progressive
Compression mode : Lossy
Bits/(Pixel*Frame) : 0.192
Stream size : 621 MiB (89%)
Writing library : DivX 6.8.5 (UTC 2009-08-20)
Audio #1
ID : 1
Format : MPEG Audio
Format version : Version 1
Format profile : Layer 3
Mode : Joint stereo
Mode extension : MS Stereo
Codec ID : 55
Codec ID/Hint : MP3
Duration : 1h 20mn
Bit rate mode : Constant
Bit rate : 128 Kbps
Channel(s) : 2 channels
Sampling rate : 48.0 KHz
Compression mode : Lossy
Stream size : 73.4 MiB (10%)
Alignment : Aligned on interleaves
Interleave, duration : 40 ms (1.00 video frame)
Interleave, preload duration : 504 ms
Writing library : LAME3.96.1
♥ Качество: DVDRip
♥ Продолжительность: 01:20:12

♥ Формат: AVI
♥ Видео кодек: DivX 5
♥ Аудио кодек: MP3
♥ Видео: 640x352 (16:9), 25 fps, DivX Codec 5 ~1082 kbps avg, 0.192 bit/pixel
♥ Аудио1: 48 kHz, MPEG Layer 3, 2 ch, ~128.00 kbps avg| Дубляж


♥ Дата премьеры (мир): 19 декабря 2003
♥ Дата премьеры (РФ): 29 апреля 2004, «Централ Партнерши
48b83ea4ed014b531d133e1a7d5f99f21d2ae49cЛегенда о рыцаре / El Cid: La leyenda (Хосе Позо, мультфильм, приключения, биография, 2003) [DVDRip, Дубляж] Легенда о рыцаре / El Cid: La leyenda (Хосе Позо, мультфильм, приключения, биография, 2003) [DVDRip, Дубляж] " />

Аплоадер: Админ, дата: 6-01-2013, 19:51, торрент скачан: 359 раз

Понравилась раздача? Посмотрите эти:
  • Чемпионат Италии 2012-13 / 36-й тур / Рома — Кьево / НТВ+ [07.05.2013, SD, ...
  • Легенда о рыцаре / El Cid: La leyenda (Хосе Позо, мультфильм, приключения, ...
  • Скуби-Ду! Маска Синего Сокола / Scooby-Doo! Mask Of The Blue Falcon (Оливье ...
  • Молодежный чемпионат мира 2012 (U-20). Четвертьфинал: Россия - Чехия [02.01 ...
  • Чемпионат Испании 2011-12 / 36-й тур / Реал Мадрид - Севилья / НТВ+ [Футбол ...
  • Чемпионат Англии 2011-12 / 36 тур / Челси - Куинз Парк Рейнджерс / Спорт 1 ...
  • Чемпионат Европы 2012 / Группа C / 1-й тур / Ирландия — Хорватия / ТРК Футб ...
  • Чемпионат Европы 2012 / Группа D / 1-й тур / Украина - Швеция / Спорт 1 [11 ...
  • Олимпиада 2012 / Мужчины / Группа D / 1-й тур / Испания — Япония / НТВ+ [Фу ...
  • Олимпиада 2012 / Футбол / Мужчины / Группа A / 3-й тур / Великобритания - У ...
  • Tank Feat. T.I. & Kris Stephens / Compliments [2012, RnB,Hip-Hop, HDRip]
  • Дневники разработчиков Nissan GT-R / The GT-R Legend (Хакидо Санир, Докумен ...
  • Скуби-Ду: Нападение Пантазаура / Scooby-Doo! Legend of the Phantosaur (Дугл ...
  • Чемпионат Англии 2011-12 / 35 тур / Манчестер Юнайтед - Эвертон / Спорт 1 [ ...
  • Чемпионат Англии 2011-2012 / Championship / 45-й Тур / Обзор Матчей / НТВ+ ...
  • Чемпионат Англии 2011-12 / 37-й тур / Манчестер Юнайтед - Суонси Сити / Спо ...
  • Чемпионат Европы 2012 / Группа B / 1-й тур / Германия - Португалия / Спорт ...
  • NBA Finals 2012 / Sportscenter / В преддверии 3-ей игры / Viasat Sport [Бас ...
  • NBA Playoffs 2012 / The Finals / Games 4 / Oklahoma City Thunder @ Miami He ...
  • NBA Finals 2012 / Sportscenter / Четвертая игра под микроскопом / Viasat Sp ...
  • Товарищеский матч 2012 / АмаЗулу (ЮАР) - Манчестер Юнайтед (Англия) / MU TV ...
  • Чемпионат России 2012-13 / 1-й тур / Мордовия - Локомотив / НТВ+ [Футбол, 2 ...
  • Олимпиада 2012 / Женщины, Мужчины / Плавание / Квалификация / НТВ+ [30.07.2 ...
  • Товарищеский матч / Звёзды Малайзии - Манчестер Сити / ТК Футбол [Футбол, 2 ...
  • ХХХ Летние Олимпийские Игры / Лёгкая атлетика / День 7 / Финалы и Полуфинал ...
  • Информация
    Посетители, находящиеся в группе Гости, не могут оставлять комментарии к данной публикации.