вход на сайт

Имя пользователя :
Пароль :

Восстановление пароля Регистрация
Киддо - супергрузовичок / Kiddo The Super Truck (Д. Нэйр, Мультфильм, 2002) [DVDRip, Профессиональный (многоголосый закадровый)]
Рейтинг:
(голосов: 1)



[img]{THEME}/images/logopost.png[/img]



Киддо - супергрузовичок / Kiddo The Super Truck



Год выпуска: 2002
Страна: США
Производство: Magic Dreams
Жанр: Мультфильм

Режиссёр: Д. Нэйр, М.Н. Раджасимхаан
В ролях: Киддо, М-р Блю, Хумми, Дабл О`Дейв и др.

Перевод: Профессиональный (многоголосый закадровый)
Субтитры: Отсутствуют



Описание


Киддо — небольшой волшебный грузовичок с уникальной способностью к превращениям. Когда его замечательные друзья нуждаются в помощи, Киддо с легкостью может трансформироваться в гоночный автомобиль, лодку, поезд и даже в ракету или самолет! Он надежный и преданный друг для всех жителей Солнечной страны — самого волшебного места на Земле.
Зарубежная пресса назвала приключения Киддо «самой замечательной мультипликацией, когда-либо созданной для детей...


"MediaInfo" ▼Text
Общее
Полное имя : D:РелизыКиддо-супергрузовичокКиддо-супергрузовичокКиддо - супергрузовичок.avi
Формат : AVI
Формат/Информация : Audio Video Interleave
Размер файла : 700 Мбайт
Продолжительность : 1 ч. 18 м.
Общий поток : 1250 Кбит/сек
Программа кодирования : VirtualDubMod 1.5.4.1 (build 2178/release)
Библиотека кодирования : VirtualDubMod build 2178/release

Видео
Идентификатор : 0
Формат : MPEG-4 Visual
Параметр BVOP формата : 1
Параметр QPel формата : Нет
Параметр GMC формата : Без точки перехода
Параметр матрицы формата : Default (H.263)
Режим смешивания : Сжатый битовый поток
Идентификатор кодека : DX50
Идентификатор кодека/Подсказка : DivX 5
Продолжительность : 1 ч. 18 м.
Битрейт : 1115 Кбит/сек
Ширина : 576 пикселей
Высота : 320 пикселей
Соотношение сторон : 16:9
Частота кадров : 25,000 кадров/сек
Цветовое пространство : YUV
Субдискретизация насыщенности : 4:2:0
Битовая глубина : 8 бит
Тип развёртки : Прогрессивная
Метод сжатия : С потерями
Бит/(Пиксели*Кадры) : 0.242
Размер потока : 624 Мбайт (89%)
Библиотека кодирования : DivX 5.2.1 (WaffleDay) (UTC 2004-09-08)

Аудио
Идентификатор : 1
Формат : MPEG Audio
Версия формата : Version 1
Профиль формата : Layer 3
Режим : Joint stereo
Расширение режима : MS Stereo
Идентификатор кодека : 55
Идентификатор кодека/Подсказка : MP3
Продолжительность : 1 ч. 18 м.
Вид битрейта : Постоянный
Битрейт : 128 Кбит/сек
Каналы : 2 канала
Частота : 48,0 КГц
Метод сжатия : С потерями
Размер потока : 71,7 Мбайт (10%)
Выравнивание : Соединение по промежуткам
Продолжительность промежутка : 80 мс. (2,00 видеокадра)
Время предзагрузки промежутка : 504 мс.
Библиотека кодирования : LAME3.97b
Настройки программы : -m j -V 4 -q 2 -lowpass 17 -b 128





Тех.данные


Качество: DVDRip
Продолжительность: 01:18:17

Формат: AVI
Видео кодек: DivX 5
Аудио кодек: Mp3
Видео: 576х320, 25 fps, DivX 5 ~ 1 115 kbps avg, 0.242 bit/pixel
Аудио: 48.0 kHz, MPEG Layer 3, 2 ch, ~128 kbps


65a311c9263856ae08178b66bd1f9078eb93ff90Киддо - супергрузовичок / Kiddo The Super Truck (Д. Нэйр, Мультфильм, 2002) [DVDRip, Профессиональный (многоголосый закадровый)] Киддо - супергрузовичок / Kiddo The Super Truck (Д. Нэйр, Мультфильм, 2002) [DVDRip, Профессиональный (многоголосый закадровый)] " />

Аплоадер: Админ, дата: 6-01-2013, 01:11, торрент скачан: 359 раз

Понравилась раздача? Посмотрите эти:
  • Слежка / The Letter (Джей Ананья, Триллер, драма, 2012) [DVDRip, Профессион ...
  • Злые птицы: Хэллоуин / Angry Birds: HamOWeen (Джей Ройвайнен, Мультфильм, к ...
  • Темный сахар / Brown Sugar (Рик Фамуйива, Драма, мелодрама, комедия, музыка ...
  • Вечерний Ургант // Сезон 2. Выпуск 56 (ТВ-шоу, 11.12.2012) [SATRip, Не треб ...
  • Бог любви / God of Love (Люк Мэзени, Короткометражка, фэнтези, комедия, мел ...
  • Любовь по расписанию / Поезд (Сергей Мезенцев, мелодрама, 2012) [HDTVRip, Н ...
  • К-9: Рождественские приключения / K9 Adventures: A Christmas Tale (Бен Гурл ...
  • Вечерний Ургант // Сезон 2. Выпуск 62 (ТВ-шоу, 19.12.2012) [SATRip, Не треб ...
  • Кейси Джонс / Casey Jones (Иларион Бэнкс, Короткометражка, фэнтези, боевик, ...
  • Заместитель / Il supplente (Андреа Жублин, Короткометражка, комедия, 2007) ...
  • Вечерний Ургант // Сезон 2. Выпуск 64 (ТВ-шоу, 21.12.2012) [SATRip, Не треб ...
  • Вечерний Ургант // Сезон 2. Выпуск 66 (ТВ-шоу, 25.12.2012) [SATRip, Не треб ...
  • Вечерний Ургант // Сезон 2. Выпуск 68 (ТВ-шоу, 27.12.2012) [SATRip, Не треб ...
  • Дорога на... / Road to (Таисия Игуменцева, Комедия, короткометражный, 2011) ...
  • Покорить высоту / Take It to the Limit (Сэм Кит / Sam Kieth, семейный, 2000 ...
  • Светлячок. Воссоединение Коричневых плащей к 10 годовщине / Firefly 10th An ...
  • А что насчет тебя? / How About You (Энтони Бирн, Драма, комедия, 2007) [DVD ...
  • Детский душ / Baby Shower (Pablo Illanes, Ужасы, 2011) [DVDRip, Любительски ...
  • Pitbull / Bon Bon [2010, Pop, HDRip]
  • Бюро находок : Потерянный и найденный / Lost and Found (Филип Хант, коротко ...
  • Информация
    Посетители, находящиеся в группе Гости, не могут оставлять комментарии к данной публикации.