вход на сайт

Имя пользователя :
Пароль :

Восстановление пароля Регистрация
Шевели ластами 2 / Sammys avonturen 2 (Бен Стассен, мультфильм, приключения, 2012) [HDRip, Дублированный]
Рейтинг:
(голосов: 1)



[img]{THEME}/images/logopost.png[/img]



• Шевели ластами 2 / Sammys avonturen 2 •
♥ Год выпуска: 2012
♥ Страна: Бельгия
♥ Производство: BNP Paribas Fortis Film Fund
♥ Жанр: мультфильм, приключения

♥ Режиссёр: Бен Стассен
♥ В ролях: Билли Ангер, Пэт Кэрролл, Карлос МакКаллерс II, Синда Адамс, Дино Андраде, Крис Эндрю Кулла, Изабель Фурман, Уэсли Джонни, Силье Рейномо, Дуглас Райан Рот

♥ Перевод: Дублированный
♥ Субтитры: Отсутствуют

♥ Описание:
Верные друзья навсегда, черепахи Сэмми и Рей, наслаждаются размеренной жизнью вблизи океана, а также присматривают за только что вылупившимися Рикки и Эллой. Внезапно, браконьер хватает больших черепах, они нужны ему для захватывающего морского шоу в Дубае. Центральная фигура шоу, морской конёк Большой Ди, посвящает новичков в свои планы на грандиозный побег.

Но, когда маленькие Рикки и Элла прибывают, чтобы спасти «дедушек», планы черепах и их новых друзей: пучеглазой рыбки Джимбо, осьминога Анабель, омара и большой семьи пингвинов, меняются. После ряда волнующих приключений и побегов, наши герои направляются на юг, чтобы встретиться с Шелли, первой и единственной любовью Сэмми.


MediaInfo ▼
Text
General
Complete name : C:Sheveli.lastami.2.2012.D.HDRip.700MB.avi
Format : AVI
Format/Info : Audio Video Interleave
File size : 703 MiB
Duration : 1h 32mn
Overall bit rate : 1 058 Kbps
Writing application : VirtualDubMod 1.5.10.2 (build 2542/release)
Writing library : VirtualDubMod build 2542/release
Video #0
ID : 0
Format : MPEG-4 Visual
Format profile : Advanced [email protected]
Format settings, BVOP : 2
Format settings, QPel : No
Format settings, GMC : No warppoints
Format settings, Matrix : Default (MPEG)
Codec ID : XVID
Codec ID/Hint : XviD
Duration : 1h 32mn
Bit rate : 921 Kbps
Width : 720 pixels
Height : 400 pixels
Display aspect ratio : 16:9
Frame rate : 23.976 fps
Color space : YUV
Chroma subsampling : 4:2:0
Bit depth : 8 bits
Scan type : Interlaced
Scan order : Bottom Field First
Compression mode : Lossy
Bits/(Pixel*Frame) : 0.133
Stream size : 612 MiB (87%)
Writing library : XviD 1.2.1 (UTC 2008-12-04)
Audio #1
ID : 1
Format : MPEG Audio
Format version : Version 1
Format profile : Layer 3
Mode : Joint stereo
Mode extension : MS Stereo
Codec ID : 55
Codec ID/Hint : MP3
Duration : 1h 32mn
Bit rate mode : Constant
Bit rate : 128 Kbps
Channel(s) : 2 channels
Sampling rate : 48.0 KHz
Compression mode : Lossy
Stream size : 85.0 MiB (12%)
Alignment : Aligned on interleaves
Interleave, duration : 42 ms (1.00 video frame)
Interleave, preload duration : 504 ms
Writing library : LAME3.99r
Encoding settings : -m j -V 4 -q 2 -lowpass 17 -b 128
♥ Качество: HDRip
♥ Продолжительность: 01:32:50

♥ Формат: AVI
♥ Видео кодек: XviD
♥ Аудио кодек: MP3
♥ Видео: 720x400 (16:9), 23.976 fps, XviD build 50 ~921 kbps avg, 0.133 bit/pixel
♥ Аудио: 48 kHz, MPEG Layer 3, 2 ch, ~128.00 kbp
ffd0ca5a4190c27db2f2482986b1cbeb9f15b4edШевели ластами 2 / Sammys avonturen 2 (Бен Стассен, мультфильм, приключения, 2012) [HDRip, Дублированный] Шевели ластами 2 / Sammys avonturen 2 (Бен Стассен, мультфильм, приключения, 2012) [HDRip, Дублированный] " />

Аплоадер: Админ, дата: 15-12-2012, 23:56, торрент скачан: 359 раз

Понравилась раздача? Посмотрите эти:
  • Шевели ластами! / Sammys avonturen: De geheime doorgang [Полная версия] (Бе ...
  • [3D] Шевели ластами 2 / Sammys avonturen 2 (Бен Стассен, Мультфильм, приклю ...
  • Скуби-Ду! Маска Синего Сокола / Scooby-Doo! Mask Of The Blue Falcon (Оливье ...
  • Шевели ластами! / Sammys avonturen: De geheime doorgang (Бен Стассен, прикл ...
  • Шевели ластами! / Sammys avonturen: De geheime doorgang (Бен Стассен, прикл ...
  • Шевели ластами! / Sammys avonturen: De geheime doorgang (Бен Стассен, при ...
  • Шевели ластами 2 / Sammys avonturen 2 (Бен Стассен, мультфильм, приключения ...
  • Шевели ластами 2 / Sammys avonturen 2 (Бен Стассен, Мультфильм, приключения ...
  • Шевели ластами 2 / Sammys avonturen 2 (Бен Стассен, Мультфильм, приключения ...
  • Шевели ластами 2 / Sammys avonturen 2 (Бен Стассен, Мультфильм, приключения ...
  • [3D] Шевели ластами! / Sammys avonturen: De geheime doorgang (Бен Стассен / ...
  • [3D] Шевели ластами 2 3D трейлер / Sammys avonturen 2 3D trailer (Бен Стасс ...
  • [3D] Шевели ластами 2 / Sammys avonturen 2 (Бен Стассен / Ben Stassen, Муль ...
  • Шевели ластами! / Sammys avonturen: De geheime doorgang (Бен Стассен / муль ...
  • Молодежный чемпионат мира 2012 (U-20). Четвертьфинал: Россия - Чехия [02.01 ...
  • Чемпионат Европы 2012 / Группа C / 1-й тур / Ирландия — Хорватия / ТРК Футб ...
  • Чемпионат Европы 2012 / Группа D / 1-й тур / Украина - Швеция / Спорт 1 [11 ...
  • Олимпиада 2012 / Мужчины / Группа D / 1-й тур / Испания — Япония / НТВ+ [Фу ...
  • Олимпиада 2012 / Футбол / Мужчины / Группа A / 3-й тур / Великобритания - У ...
  • Tank Feat. T.I. & Kris Stephens / Compliments [2012, RnB,Hip-Hop, HDRip]
  • [PSP VIDEO] Шевели ластами! / Sammys avonturen: De geheime doorgang / Sammy ...
  • Чемпионат Европы 2012 / Группа B / 1-й тур / Германия - Португалия / Спорт ...
  • NBA Finals 2012 / Sportscenter / В преддверии 3-ей игры / Viasat Sport [Бас ...
  • Товарищеский матч 2012 / АмаЗулу (ЮАР) - Манчестер Юнайтед (Англия) / MU TV ...
  • Олимпиада 2012 / Женщины, Мужчины / Плавание / Квалификация / НТВ+ [30.07.2 ...
  • Информация
    Посетители, находящиеся в группе Гости, не могут оставлять комментарии к данной публикации.