вход на сайт

Имя пользователя :
Пароль :

Восстановление пароля Регистрация
Том и Джерри Робин Гуд и мышь-весельчак/ Tom And Jerry Robin Hood And His Merry Mouse(Spike Brandt, Tony Cervone, мультфильм, семейный, 2012) [BDRip 720p, Профессиональный (полное дублированние)]
Рейтинг:
(голосов: 1)



[img]{THEME}/images/logopost.png[/img]



Том и Джерри Робин Гуд и мышь-весельчак/ Tom And Jerry Robin Hood And His Merry Mouse

Год выпуска: 2012
Страна:США
Производство: Warner Home Video
Жанр: мультфильм, семейный

Режиссёр:Спайк Брандт : Spike Brandt, Тони Сервон : Tony Cervone
В ролях: Клайв Ревилл, Грег Эллис, Джо Аласкей, Ричард МакГонаги, Чарльз Шонесси, Грей Делайл, Джейми Бамбер, Джесс Харнелл, Джон Ди Маджио, Джон Майкл Хиггинс, Фил ЛаМарр

Перевод: Профессиональный (полное дублированние)
Субтитры:внешние и вшитые; английские

Описание: Он грабил богатых, раздавал награбленное бедным, а теперь ему отчаянно нужна помощь Тома и Джерри! Знаменитый разбойник Робин Гуд попал в лапы злого шерифа Ноттингемского, а возлюбленной Робина, деве Мэриан, грозит серьезная опасность со стороны алчного принца Джона. Сумеют ли заклятые враги Том и Джерри на время забыть о своей вражде, чтобы спасти положение? В новом полнометражном мультипликационном фильме любимая многими средневековая сказка обрела новое прочтение. Динамичный сюжет, опасные трюки, залихватские песни, и, конечно, всеобщие любимцы, воитель Томас и маленький разбойник Джерри. Один за всех и все за одного в самой бесшабашной и удивительной истории из всех, что когда-либо происходили в Шервудском лесу.
Качество: BDRip 720p
Продолжительность: 01:27:28 час.

Формат: MKV
Видео кодек: AVC
Аудио кодек: AC3 : DTS
Видео: 1280x720(16:9), 23.976 fps, ~2 287 kbps avg, 0.103 bit/pixel
Аудио: #1: 48.0 kHz, AC3 Dolby Digital, 2 ch, ~192 kbps (RUS)
#2: 48 kHz, 6 ch, ~1 510 kbps (ENG)

MI ▼Общее
Уникальный идентификатор : 186050227642918704632320863039136401393 (0x8BF7F86FEB63BC8286ADA00D4A2707F1)
Полное имя : G:ЯЯТом и Джерри Робин Гуд и мышь-весельчакTom.and.Jerry.Robin.Hood.and.His.Merry.Mouse.2012.BDRip 720p.mkv
Формат : Matroska
Версия формата : Version 2
Размер файла : 1,64 Гбайт
Продолжительность : 57 м.
Общий поток : 4069 Кбит/сек
Название фильма : HDT
Дата кодирования : UTC 2012-11-02 21:02:56
Программа кодирования : mkvmerge v5.7.0 (The Whirlwind) built on Jul 8 2012 20:08:51
Библиотека кодирования : libebml v1.2.3 + libmatroska v1.3.0

Видео
Идентификатор : 1
Формат : AVC
Формат/Информация : Advanced Video Codec
Профиль формата : [email protected]
Параметр CABAC формата : Да
Параметр ReFrames формата : 4 кадра
Идентификатор кодека : V_MPEG4/ISO/AVC
Продолжительность : 57 м.
Битрейт : 2287 Кбит/сек
Ширина : 1280 пикселей
Высота : 720 пикселей
Соотношение сторон : 16:9
Частота кадров : 23,976 кадра/сек
Цветовое пространство : YUV
Субдискретизация насыщенности : 4:2:0
Битовая глубина : 8 бит
Тип развёртки : Прогрессивная
Бит/(Пиксели*Кадры) : 0.103
Размер потока : 943 Мбайт (56%)
Библиотека кодирования : x264 core 128 r2216 198a7ea
Настройки программы : cabac=1 / ref=4 / deblock=1:-1:-1 / analyse=0x3:0x133 / me=umh / subme=7 / psy=1 / psy_rd=1.00:0.15 / mixed_ref=1 / me_range=16 / chroma_me=1 / trellis=1 / 8x8dct=1 / cqm=0 / deadzone=21,11 / fast_pskip=0 / chroma_qp_offset=-3 / threads=9 / lookahead_threads=1 / sliced_threads=0 / nr=0 / decimate=1 / interlaced=0 / bluray_compat=0 / constrained_intra=0 / bframes=3 / b_pyramid=2 / b_adapt=1 / b_bias=0 / direct=1 / weightb=1 / open_gop=0 / weightp=2 / keyint=250 / keyint_min=23 / scenecut=40 / intra_refresh=0 / rc_lookahead=40 / rc=crf / mbtree=1 / crf=20.0 / qcomp=0.60 / qpmin=0 / qpmax=69 / qpstep=4 / ip_ratio=1.40 / aq=1:0.00
Default : Да
Forced : Нет

Аудио #1
Идентификатор : 2
Формат : AC-3
Формат/Информация : Audio Coding 3
Расширение режима : CM (complete main)
Идентификатор кодека : A_AC3
Продолжительность : 57 м.
Вид битрейта : Постоянный
Битрейт : 192 Кбит/сек
Каналы : 2 канала
Расположение каналов : Front: L R
Частота : 48,0 КГц
Битовая глубина : 16 бит
Метод сжатия : С потерями
Размер потока : 79,2 Мбайт (5%)
Заголовок : DVD R5
Я
5f0f65ff4eeb19da0c2b2a97bbaebe5d6cf2b3f5Том и Джерри Робин Гуд и мышь-весельчак/ Tom And Jerry Robin Hood And His Merry Mouse(Spike Brandt, Tony Cervone, мультфильм, семейный, 2012) [BDRip 720p, Профессиональный (полное дублированние)] Том и Джерри Робин Гуд и мышь-весельчак/ Tom And Jerry Robin Hood And His Merry Mouse(Spike Brandt, Tony Cervone, мультфильм, семейный, 2012) [BDRip 720p, Профессиональный (полное дублированние)] " />

Аплоадер: Админ, дата: 4-11-2012, 21:38, торрент скачан: 359 раз

Понравилась раздача? Посмотрите эти:
  • Суррогат / The Sessions (Бен Луин, Драма, 2012) [BDRip-AVC, Профессиональны ...
  • Ошибка телохранителя / The Girl from the Naked Eye (Дэвид Рен, боевик, трил ...
  • Дьявол / Devil (Джон Эрик Даудл / John Erick Dowdle,ужасы, триллер, детекти ...
  • Робин Гуд / Robin Hood (Вольфганг Райтерман, мультфильм, мелодрама, приключ ...
  • Сид, инструкция по выживанию / Surviving Sid (Гален Т. Чу / Galen T. Chu, К ...
  • Безумные мелодии: Кажется я видел котика / Looney Tunes: I Tawt I Taw а Pud ...
  • Скрат: Потерянный орех / Scrat: Gone Nutty (Карлос Салдана, короткометражка ...
  • Робин Гуд (Режиссерская версия) / Robin Hood (Directors cut) [Ридли Скотт; ...
  • Том и Джерри и волшебник из страны Оз / Tom and Jerry & The Wizard of Oz (С ...
  • Лоракс: Серенада / The Lorax: Serenade (Кайл Балда, мультфильм, комедия, му ...
  • Большой отрыв БОБа / B.O.B.s Big Break (Роберт Портер, короткометражка, ан ...
  • Том и Джерри и волшебник из страны Оз / Tom and Jerry & The Wizard of Oz (С ...
  • Том и Джерри и волшебник из страны Оз / Tom and Jerry & The Wizard of Oz (С ...
  • Том и Джерри: В Собачьей Конуре / Tom and Jerry: In the Dog House (Spike Br ...
  • [MULT] Том и Джерри и волшебник из страны Оз / Tom and Jerry & The Wizard o ...
  • [MULT] Том и Джерри: Шерлок Холмс / Tom & Jerry Meet Sherlock Holmes (Джефф ...
  • Том и Джерри: Робин Гуд и мышь-весельчак / Robin Hood And His Merry Mouse ( ...
  • Том и Джерри: Робин Гуд и Мышь-Весельчак / Tom and Jerry: Robin Hood and Hi ...
  • Том и Джерри: Робин Гуд и Мышь-Весельчак / Tom and Jerry: Robin Hood and Hi ...
  • Том и Джерри: Робин Гуд и Мышь-Весельчак / Tom and Jerry: Robin Hood and Hi ...
  • Информация
    Посетители, находящиеся в группе Гости, не могут оставлять комментарии к данной публикации.