вход на сайт

Имя пользователя :
Пароль :

Восстановление пароля Регистрация
Кошмар перед Рождеством / The Nightmare Before Christmas (Генри Селик, мультфильм, мюзикл, фэнтези, семейный, 1993) [BDRip-AVC, Дублированный + Оригинал + SUB]
Рейтинг:
(голосов: 1)



[img]{THEME}/images/logopost.png[/img]



Кошмар перед Рождеством / The Nightmare Before Christmas
«A ghoulish tale with wicked humour & stunning animation.»

Год выпуска: 1993
Страна: США
Производство: Skellington Productions Inc., Tim Burton Productions, Touchstone Pictures, Walt Disney Pictures
Жанр: мультфильм, мюзикл, фэнтези, семейный

Режиссёр: Генри Селик | Henry Selick
В ролях: Дэнни Элфман (Jack Skellington - Singing Voice / Barrel / Clown with the Tear Away Face, озвучка), Крис Сарандон (Jack Skellington, озвучка), Кэтрин О’Хара (Sally / Shock, озвучка), Уильям Хикки (Dr. Finklestein, озвучка), Гленн Шэдикс (Mayor, озвучка), Пол Рубенс (Lock, озвучка), Кен Пейдж (Oogie Boogie, озвучка), Эд Айвори (Santa, озвучка), Сьюзэн МакБрайд (Big Witch / WWD., озвучка), Деби Дерст (Corpse Kid / Corpse Mom / Small Witch, озвучка)

Перевод: 1 - Профессиональный (полное дублирование)
2 - Оригинал (Английский)
Субтитры: softsub (SRT) | русские, русские (Позитив, только песни), русские (Позитив), русские (Михаил Козырев), русские (комментарии (Генри Селик и Пит Козачик)), английские

Описание:
Мультфильм рассказывает о царстве Хэллоуин, царстве страхов и кошмаров, где живут мертвецы, уродцы, чудовища во главе с царем ужасов Джеком Скелингтоном. Под рождество Джек случайно попадает в город Рождества, где узнает, что есть где-то радость, добро и веселье.
Ему страшно захотелось испытать это чувство — дарить людям счастье — и он похитил Сэнди Клауса и занял его место. Результаты были, правда, самые плачевные, да и подарки его никому, мягко говоря, не понравились. Но он все понял и исправил свою ошибку.Дата премьеры (мир): 9 октября 1993
Автор Рипа - Nitey
Качество: BDRip-AVC | исх. Кошмар перед Рождеством / The Nightmare Before Christmas (1993) Blu-ray CEE 1080p VC-1 TrueHD 7.1-DVDSEED
Продолжительность: 01:16:40

Формат: MKV
Видео кодек: H.264
Аудио кодек: AC3
Видео: 1204x720 (1.672:1), 23,976 fps, H.264 ~2 718 kbps avg, 0.127 bit/pixel
Аудио #1: 48 kHz, AC3, 3/2 (L,C,R,l,r) + LFE ch, ~384.00 kbps avg | Профессиональный (полное дублирование)
Аудио #2: 48 kHz, AC3, 3/2 (L,C,R,l,r) + LFE ch, ~448.00 kbps avg | Оригинал (Английский)
MediaInfo ▼Format : AVC
Format/Info : Advanced Video Codec
Format profile : [email protected]
Format settings, CABAC : Yes
Format settings, ReFrames : 8 frames
Codec ID : V_MPEG4/ISO/AVC
Duration : 1h 16mn
Bit rate : 2 718 Kbps
Width : 1 204 pixels
Height : 720 pixels
Display aspect ratio : 1.672
Frame rate : 23.976 fps
Color space : YUV
Chroma subsampling : 4:2:0
Bit depth : 8 bits
Scan type : Progressive
Bits/(Pixel*Frame) : 0.127
Stream size : 1.42 GiB (75%)
Writing library : x264 core 125 r2208kMod d9d2288
Encoding settings : cabac=1 / ref=8 / deblock=1:-3:-2 / analyse=0x3:0x133 / me=tesa / subme=11 / psy=1 / fade_compensate=0.00 / psy_rd=0.90:0.03 / mixed_ref=1 / me_range=64 / chroma_me=1 / trellis=2 / 8x8dct=1 / cqm=0 / deadzone=21,11 / fast_pskip=0 / chroma_qp_offset=-3 / threads=6 / lookahead_threads=1 / sliced_threads=0 / nr=0 / decimate=1 / interlaced=0 / bluray_compat=0 / constrained_intra=0 / bframes=16 / b_pyramid=2 / b_adapt=2 / b_bias=0 / direct=1 / weightb=1 / open_gop=0 / weightp=2 / keyint=250 / keyint_min=23 / scenecut=40 / intra_refresh=0 / rc=crf / mbtree=0 / crf=20.0000 / qcomp=0.65 / qpmin=0 / qpmax=69 / qpstep=4 / ip_ratio=1.40 / pb_ratio=1.20 / aq=3:0.90
Language : English
Default : Yes
Forced : No
Matrix coefficients : BT.709-5, BT.1361, IEC 61966-2-4 709, SMPTE RP177
Audio #1
ID : 2
Format : AC-3
Format/Info : Audio Coding 3
Mode extension : CM (complete main)
Codec ID : A_AC3
Duration : 1h 16mn
Bit rate mode : Constant
Bit rate : 384 Kbps
Channel(s) : 6 channels
Channel positions : Front: L C R, Side: L R, LFE
Sampling rate : 48.0 KHz
Bit depth : 16 bits
Compression mode : Lossy
Stream size : 211 MiB (11%)
Title : Dub
La
18012cc46163402c156592b73e42f3c5c11b0ca1Кошмар перед Рождеством / The Nightmare Before Christmas (Генри Селик, мультфильм, мюзикл, фэнтези, семейный, 1993) [BDRip-AVC, Дублированный + Оригинал + SUB] Кошмар перед Рождеством / The Nightmare Before Christmas (Генри Селик, мультфильм, мюзикл, фэнтези, семейный, 1993) [BDRip-AVC, Дублированный + Оригинал + SUB] " />

Аплоадер: Админ, дата: 4-11-2012, 02:09, торрент скачан: 359 раз

Понравилась раздача? Посмотрите эти:
  • Кошмар перед Рождеством / The Nightmare Before Christmas (Генри Селик, Муль ...
  • Корпорация Монстров / Monsters, Inc. (Пит Доктер, Дэвид Силверман, Ли Анкри ...
  • Клик: С пультом по жизни / Click (Фрэнк Корачи, Фэнтези, драма, мелодрама, ...
  • Космический джэм / Space Jam (Джо Питка, мультфильм, фэнтези, комедия, 1996 ...
  • Кошмар перед Рождеством / The Nightmare Before Christmas (Генри Селик, Тим ...
  • Кошмар перед Рождеством / The Nightmare Before Christmas (Хенри Зелик / Hen ...
  • Кошмар перед Рождеством / The Nightmare Before Christmas (Генри Селик, муль ...
  • Кошмар перед Рождеством / The Nightmare Before Christmas (Генри Селик, муль ...
  • Кунг-фу Панда 2 / Kung Fu Panda 2 (Дженнифер Ю, мультфильм, боевик, комеди ...
  • Коралина в Стране Кошмаров / Coraline (Генри Селик, мультфильм, фэнтези, тр ...
  • [3D] Кошмар перед Рождеством 3D / The Nightmare Before Christmas 3D (Генри ...
  • [3D] Миссия Дарвина / G-Force 3D (Хойт Йетмен, мультфильм, фэнтези, боевик, ...
  • [3D] Кошмар перед Рождеством 3D / The Nightmare Before Christmas 3D (Генри ...
  • Ледниковый период: Гигантское Рождество / Ice Age: A Mammoth Christmas (Кар ...
  • Чаббчаббы спасают Рождество / The Chubbchubbs Save Xmas (Коуди Камерон, мул ...
  • Лоракс / Dr. Seuss The Lorax (Крис Рено, Кайл Балда, Мультфильм, фэнтези, с ...
  • Франкенвини / Frankenweenie (Тим Бёртон, мультфильм, ужасы, фантастика, ком ...
  • Коралина в Стране Кошмаров / Coraline (Генри Селик, комедия, мелодрама, мюз ...
  • Кошмар перед Рождеством / The Nightmare Before Christmas (Генри Селик. Фэнт ...
  • Кошмар перед Рождеством / The Nightmare Before Christmas (Генри Селик, муль ...
  • Информация
    Посетители, находящиеся в группе Гости, не могут оставлять комментарии к данной публикации.