вход на сайт

Имя пользователя :
Пароль :

Восстановление пароля Регистрация
Скрат: Потерянный орех / Scrat: Gone Nutty (Карлос Салдана, короткометражка, анимация, мультфильм, 2002) [BDRip 720p, не требуется]
Рейтинг:
(голосов: 1)



[img]{THEME}/images/logopost.png[/img]



Скрат: Потерянный орех : Scrat: Gone Nutty

Год выпуска: 2002
Страна: США
Производство: Twentieth Century Fox
Жанр: короткометражка, анимация, мультфильм

Режиссёр: Карлос Салдана | Carlos Saldanha
В ролях: Крис Уэдж | Khris Wedge

Перевод: не требуется
Субтитры: отсутствуют

Описание:
Знаменитая белка из «Ледникового периода» гоняется за орехами в процессе полета с обрыва до земли.
Качество: BDRip 720p | BDRemux 1080
Продолжительность: 00:04:46 мин.

Формат: MKV
Видео кодек: AVC
Аудио кодек: AC3
Видео: 1280x720 (16:9), 23.976 fps, H264 ~3 600 kbps avg, 0.179 bit/pixel
Аудио: 48 kHz, AC3, 3/2 (L,C,R,l,r) + LFE ch, ~640.00 kbps avg
MediaInfo ▼Общее
Уникальный идентификатор : 253168299526476669412871830033715907367 (0xBE7670DF00E75B8EBFE8DCF8E1374B27)
Полное имя : D:Скрат. Потерянный орехScrat.Gone nutty.2002.BDRip 720p (1).mkv
Формат : Matroska
Версия формата : Version 2
Размер файла : 144 Мбайт
Продолжительность : 4 м. 46 с.
Общий поток : 4214 Кбит/сек
Дата кодирования : UTC 2012-07-16 04:04:44
Программа кодирования : mkvmerge v5.7.0 (The Whirlwind) built on Jul 8 2012 20:08:51
Библиотека кодирования : libebml v1.2.3 + libmatroska v1.3.0
Видео
Идентификатор : 1
Формат : AVC
Формат/Информация : Advanced Video Codec
Профиль формата : [email protected]
Параметр CABAC формата : Да
Параметр ReFrames формата : 8 кадров
Идентификатор кодека : V_MPEG4/ISO/AVC
Продолжительность : 4 м. 46 с.
Битрейт : 3600 Кбит/сек
Ширина : 1280 пикселей
Высота : 720 пикселей
Соотношение сторон : 16:9
Частота кадров : 23,976 кадра/сек
Цветовое пространство : YUV
Субдискретизация насыщенности : 4:2:0
Битовая глубина : 8 бит
Тип развёртки : Прогрессивная
Бит/(Пиксели*Кадры) : 0.163
Размер потока : 119 Мбайт (83%)
Библиотека кодирования : x264 core 119 r2106 07efeb4
Настройки программы : cabac=1 / ref=8 / deblock=1:-1:-1 / analyse=0x3:0x133 / me=umh / subme=9 / psy=1 / psy_rd=0.40:0.00 / mixed_ref=0 / me_range=16 / chroma_me=1 / trellis=2 / 8x8dct=1 / cqm=0 / deadzone=21,11 / fast_pskip=0 / chroma_qp_offset=-2 / threads=3 / sliced_threads=0 / nr=0 / decimate=1 / interlaced=0 / bluray_compat=0 / constrained_intra=0 / bframes=8 / b_pyramid=2 / b_adapt=2 / b_bias=0 / direct=3 / weightb=1 / open_gop=0 / weightp=2 / keyint=240 / keyint_min=25 / scenecut=40 / intra_refresh=0 / rc_lookahead=200 / rc=2pass / mbtree=1 / bitrate=3600 / ratetol=1.0 / qcomp=0.60 / qpmin=10 / qpmax=69 / qpstep=4 / cplxblur=20.0 / qblur=0.5 / ip_ratio=1.40 / aq=1:0.60
Default : Да
Forced : Нет
Аудио
Идентификатор : 2
Формат : AC-3
Формат/Информация : Audio Coding 3
Расширение режима : CM (complete main)
Параметр Endianness формата : Big
Идентификатор кодека : A_AC3
Продолжительность : 4 м. 46 с.
Вид битрейта : Постоянный
Битрейт : 640 Кбит/сек
Каналы : 6 каналов
Расположение каналов : Front: L C R, Side: L R, LFE
Частота : 48,0 КГц
Битовая глубина : 16 бит
Метод сжатия : С потерями
Задержка видео : 24 мс.
Размер потока : 21,9 Мбайт (15%)
Default : Да
Forced : Нет


1dde7575773e7bb79e5b9291628def0e2edcdb8cСкрат: Потерянный орех / Scrat: Gone Nutty (Карлос Салдана, короткометражка, анимация, мультфильм, 2002) [BDRip 720p, не требуется] Скрат: Потерянный орех / Scrat: Gone Nutty (Карлос Салдана, короткометражка, анимация, мультфильм, 2002) [BDRip 720p, не требуется] " />

Аплоадер: Админ, дата: 25-08-2012, 13:51, торрент скачан: 359 раз

Понравилась раздача? Посмотрите эти:
  • Подглядывающий на кухне / Kick the Cock (Тинто Брасс, Эротика, короткометра ...
  • Интерны // Эпизод 181. Новогодний выпуск (Комедия, 2013) [WEB-DL 720p, Не т ...
  • Влюбленный скорпион / Alacrán enamorado (Сантьяго Санноу, триллер, драма, м ...
  • Гадкий я 2 / Despicable Me 2 (Пьер Соффин, Крис Рено, мультфильм, фантастик ...
  • Больше чем мёд / More Than Honey (документальный, 2012) [BDRip 720p, Профес ...
  • Образец 47 / Marvel One-Shot: Item 47 (Луис Д’Эспозито, короткометражка, фа ...
  • Новогодняя песенка Деда Мороза (Александр Татарский,мультфильм, короткометр ...
  • Белка: Не время для орехов / Scrat: No Time for Nuts (Крис Рено, Майк Труме ...
  • Сид, инструкция по выживанию / Surviving Sid (Гален Т. Чу / Galen T. Chu, К ...
  • Безумные мелодии: Кажется я видел котика / Looney Tunes: I Tawt I Taw а Pud ...
  • Безумные мелодии: Дорожный бегун и койот / Looney Tunes: Road Runner & Coyo ...
  • Маугли (Роман Давыдов, мультфильм, приключения, семейный, 1973) [BDRip 720p ...
  • История игрушек: Гавайские каникулы / Toy Story: Hawaiian Vacation (Гари ...
  • Лоракс: Серенада / The Lorax: Serenade (Кайл Балда, мультфильм, комедия, му ...
  • Большой отрыв БОБа / B.O.B.s Big Break (Роберт Портер, короткометражка, ан ...
  • Миньоны / Minions (Пьер Коффин, Крис Рено, короткометражка, анимация, мульт ...
  • Скрат: Потерянный орех / Scrat: Gone Nutty (Carlos Saldanha, мультфильм, к ...
  • Скарат: Не время для орехов / Scrat: No Time For Nuts (Крис Рено, Майк Тёр ...
  • Белка: Потерянный орех / Scrat: Gone Nutty (Карлос Салдана / Carlos Saldanh ...
  • Белка: Не время для орехов / Scrat: No Time for Nuts (Крис Рено, Майк Турма ...
  • Информация
    Посетители, находящиеся в группе Гости, не могут оставлять комментарии к данной публикации.