вход на сайт

Имя пользователя :
Пароль :

Восстановление пароля Регистрация
Звездный десант: Вторжение / Starship Troopers: Invasion (Синдзи Арамаки, мультфильм, фантастика, боевик, 2012) [BDRip - AVC, Профессиональный (многоголосый закадровый) + Оригинвл + SUB]
Рейтинг:
(голосов: 1)



[img]{THEME}/images/logopost.png[/img]



Звездный десант: Вторжение / Starship Troopers: Invasion
-

Год выпуска: 2012
Страна: США Япония
Производство: Sola Digital Arts
Жанр: мультфильм, фантастика, боевик

Режиссёр: Синдзи Арамаки | Sindzi Armaki
В ролях:Гретчен Лодж, Джонни Льюис, Александра Холден, Филд Бловелт, Кен Арнольд, Тони Эллис, Лоурен Лакис, Кэти Фостер, Дэниэл Росс, Тодд Райан Джонс, и др.

Перевод: 1 - Профессиональный (многоголосый закадровый) - R5
2 - Оригинал (Английский)
Субтитры: Русские - (UTF8)

Описание:
После того, как был покинут отдаленный форпост Федерации, Форт Кейси, Карл Дженкинс отправляется на разведку и исчезает в туманности. Закаленные во множественных боях солдаты могут своими действиями принести на Землю смерть человечества, а могут и наоборот его спасти. Третьего не дано.



Дата премьеры (мир): 21 июля 2012
Релиз на DVD: 28 августа 2012, «Columbia/Sony»

Качество: BDRip - AVC | исх. Звездный десант: Вторжение / Starship Troopers: Invasion (2012) 1080p BD-Remux
Продолжительность: 01:28:48 час.

Формат: MKV
Видео кодек: H.264
Аудио кодек: АС3
Видео: 1024х576 (16:9), 23,976 fps, H.264 ~2 614 kbps avg, 0.180 bit/pixel
Аудио #1: 48 kHz, DTS, 3/2 (L,C,R,l,r) + LFE ch, ~448.00 kbps avg | Профессиональный (многоголосый завадровый) - R5
Аудио #2: 48 kHz, DTS, 3/2 (L,C,R,l,r) + LFE ch, ~448.00 kbps avg | Оригинал (Английский)
MediaInfo ▼General
Complete name : K:Starship.Troopers.Invasion.2012.x264.BDRip.(AVC).mkv
Format : Matroska
File size : 2.18 GiB
Duration : 1h 28mn
Overall bit rate : 3 511 Kbps
Movie name : =Rip= by =parravoz=
Encoded date : UTC 2012-08-23 18:38:36
Writing application : mkvmerge v4.6.0 (Still Crazy After All These Years) сборка от Apr 1 2011 21:01:49
Writing library : libebml v1.2.0 + libmatroska v1.1.0
Video #1
ID : 1
Format : AVC
Format/Info : Advanced Video Codec
Format profile : [email protected]
Format settings, CABAC : Yes
Format settings, ReFrames : 10 frames
Muxing mode : Container [email protected]
Codec ID : V_MPEG4/ISO/AVC
Duration : 1h 28mn
Bit rate : 2 545 Kbps
Nominal bit rate : 2 614 Kbps
Width : 1 024 pixels
Height : 576 pixels
Display aspect ratio : 16:9
Frame rate : 23.976 fps
Resolution : 8 bits
Colorimetry : 4:2:0
Scan type : Progressive
Bits/(Pixel*Frame) : 0.180
Stream size : 1.58 GiB (72%)
Title : Zvezdnyy desant: Vtorzheniye / Starship Troopers: Invasion
Writing library : x264 core 125 r2200 999b753
Encoding settings : cabac=1 / ref=10 / deblock=1:-3:-3 / analyse=0x3:0x133 / me=umh / subme=10 / psy=1 / psy_rd=1.00:0.10 / mixed_ref=1 / me_range=48 / chroma_me=1 / trellis=2 / 8x8dct=1 / cqm=0 / deadzone=21,11 / fast_pskip=0 / chroma_qp_offset=-3 / threads=6 / lookahead_threads=1 / sliced_threads=0 / nr=0 / decimate=1 / interlaced=0 / bluray_compat=0 / constrained_intra=0 / bframes=6 / b_pyramid=2 / b_adapt=2 / b_bias=0 / direct=3 / weightb=1 / open_gop=0 / weightp=2 / keyint=240 / keyint_min=22 / scenecut=40 / intra_refresh=0 / rc_lookahead=40 / rc=2pass / mbtree=1 / bitrate=2614 / ratetol=1.0 / qcomp=0.60 / qpmin=10 / qpmax=51 / qpstep=4 / cplxblur=20.0 / qblur=0.5 / ip_ratio=1.40 / aq=1:1.00
Audio #2
ID : 2
Format : AC-3
Format/Info : Audio Coding 3
Codec ID : A_AC3
Duration : 1h 28mn
Bit rate mode : Constant
Bit rate : 448 Kbps
Channel(s) : 6 channels
Channel positions : Front: L C R, Surround: L R, LFE
Sampling rate : 48.0 KHz
Stream size : 285 MiB (13%)
Title : MVO (R5)
Language : Russian
Audio #3
ID : 3
Format : AC-3
Format/Info : Audio Coding 3
Codec ID : A_AC3
Duration : 1h 28mn
Bit rate mode : Constant
Bit rate : 448 Kbps
Channel(s) : 6 channels
Channel positions : Front: L C R, Surround: L R, LFE
Sampling rate : 48.0 KHz
Stream size : 285 MiB (13%)
Title : Original
Text #4
ID : 4
Format : UTF-8
Codec ID : S_TEXT/UTF8
Codec ID/Info : UTF-8 Plain Text
Title : Rip b
aba1aeb72ead47cf16f5537c90d724165008b16dЗвездный десант: Вторжение / Starship Troopers: Invasion (Синдзи Арамаки, мультфильм, фантастика, боевик, 2012) [BDRip - AVC, Профессиональный (многоголосый закадровый) + Оригинвл + SUB] Звездный десант: Вторжение / Starship Troopers: Invasion (Синдзи Арамаки, мультфильм, фантастика, боевик, 2012) [BDRip - AVC, Профессиональный (многоголосый закадровый) + Оригинвл + SUB] " />

Аплоадер: Админ, дата: 24-08-2012, 11:21, торрент скачан: 359 раз

Понравилась раздача? Посмотрите эти:
  • Звездный десант / Starship Troopers (Пол Верховен, фантастика, боевик, трил ...
  • Звездный десант: Хроники / Roughnecks: The Starship Troopers Chronicles // ...
  • [3D] Обитель Зла: Проклятие / Biohazard: Damnation (Макото Камия, мультфиль ...
  • Звёздный десант / Starship Troopers (Пол Верховен, фантастика, боевик, сати ...
  • Суррогат / The Sessions (Бен Луин, драма, 2012) [BDRip 720p, Профессиональн ...
  • Зубная фея 2 / Tooth Fairy 2 (Алекс Замм, комедия, семейный, 2012) [BDRip 7 ...
  • Убить по расписанию / Ticking Clock (Эрни Барбараш, фантастика, боевик, три ...
  • Звездный десант / Starship Troopers [1997, Фантастика, Боевик, Триллер, При ...
  • Звездный десант 3 / Starship Troopers 3: Marauder
  • Звездный десант 3: Мародер / Starship Troopers 3: Marauder (Эдвард Ньюмейр, ...
  • Повторяющие / Repeaters (Карл Бессай, фантастика, боевик, триллер, драма, к ...
  • Звездный десант / Starship Troopers (Пол Верховен, фантастика, боевик, трил ...
  • Звездный десант 2: Герой федерации / Starship Troopers 2: Hero of the Feder ...
  • Звездный Десант 2 - Операция Гидора / Starship Troopers 2 - Operation Hydor ...
  • Звездный десант / Starship Troopers (Пол Верховен) (1997, фантастика, боеви ...
  • Звездный десант: Вторжение / Starship Troopers: Invasion (Синдзи Арамаки, М ...
  • (1997) Basil Poledouris / Starship Troopers/Звездный десант (Soundtrack) [M ...
  • Звездный десант / Starship Troopers [1997, Фантастика, Боевик, Триллер, При ...
  • Звездный десант 2: Герой федерации / Starship Troopers 2: Hero of the Feder ...
  • Starship Troopers/Звездный десант (Buka/ (RUS)/ [L])
  • Звездный десант / Starship Troopers (Пол Верховен, Фантастика, Боевик, 1997 ...
  • Звездный десант: Вторжение / Starship Troopers: Invasion (Синдзи Арамаки, М ...
  • Звездный десант: Вторжение / Starship Troopers: Invasion (Синдзи Арамаки, м ...
  • Звездный десант: Вторжение / Starship Troopers: Invasion (Синдзи Арамаки, м ...
  • Звездный десант 3: Мародер / Starship Troopers 3: Marauder (Эдвард Ньюмейр, ...
  • Информация
    Посетители, находящиеся в группе Гости, не могут оставлять комментарии к данной публикации.