вход на сайт

Имя пользователя :
Пароль :

Восстановление пароля Регистрация
Кредо убийцы: Угли / Assassins Creed: Embers (Лорен Бернье, Приключения, мультфильм, 2011) [HDRip-AVC, Профессиональный (полное дублирование)+Оригинал]
Рейтинг:
(голосов: 1)



[img]{THEME}/images/logopost.png[/img]



Кредо убийцы: Угли / Assassins Creed: Embers

Год выпуска: 2011
Страна: Канада
Производство: Ubisoft Montreal Studios
Жанр: Приключения, мультфильм

Режиссёр: Лорен Бернье
В ролях: Анджела Галуппо, Роджер Крэйг Смит, Анна Тувери

Перевод: Профессиональный (полное дублирование)[лицензия] + Оригинал
Субтитры: нет

Описание: Заключительная глава в истории легендарного мастера-ассасина Эцио Аудиторе. Проживая на уютной тосканской вилле со своей женой Софией и двумя детьми, проводя время в компании старых друзей и занимаясь выращиванием винограда, Эцио наслаждается спокойной жизнью. Но эта идиллия продлится не долго.

Однажды загадочный Ассасин появляется на пороге дома Аудиторе и просит о помощи. Эцио вынужден отказать, но когда жизни его семьи угрожает опасность, не остается ничего другого, кроме как начать действовать.

Погаснет ли уголек в душе бывшего мастера-ассасина или воспламенится вновь, чтобы разжечь огонь в сердцах следующего поколения?




Качество: HDRip-AVC
Продолжительность: 00:21:23 час.

Формат: MKV
Видео кодек: х264
Аудио кодек: AC3
Видео: 1024х436 (2.35:1), 24,000 fps, х264, ~2171 Kbps avg, 0.203 bit/pixel
Аудио #1: [русский] 48.0 kHz, AC3 Dolby Digital, 2 channels (L,R), ~192.00 kbps avg [дублированный]
Аудио #2: [английский] 48.0 kHz, AC3 Dolby Digital, 2 channels (L,R), ~192.00 kbps avg [оригинальный]

"MediaInfo" ▼Общее
Уникальный идентификатор : 187259691627572337605200712745297043768 (0x8CE0E79D946A5AA9BC8D0E730946E13
Полное имя : D:Video...assassins_creed_embers_[tfile.ru].mkv
Формат : Matroska
Версия формата : Version 2
Размер файла : 391 Мбайт
Продолжительность : 21 м.
Общий поток : 2557 Кбит/сек
Название фильма : -=POTROKS=-
Дата кодирования : UTC 2012-01-11 15:05:45
Программа кодирования : mkvmerge v5.0.1 (Es ist Sommer) built on Oct 9 2011 11:55:43
Библиотека кодирования : libebml v1.2.2 + libmatroska v1.3.0

Видео
Идентификатор : 1
Формат : AVC
Формат/Информация : Advanced Video Codec
Профиль формата : [email protected]
Параметр CABAC формата : Да
Параметр ReFrames формата : 11 кадров
Идентификатор кодека : V_MPEG4/ISO/AVC
Продолжительность : 21 м.
Битрейт : 2171 Кбит/сек
Ширина : 1024 пикселя
Высота : 436 пикселей
Соотношение сторон : 2,35:1
Режим частоты кадров : Переменный
Частота кадров : 24,000 кадра/сек
Цветовое пространство : YUV
Субдискретизация насыщенности : 4:2:0
Битовая глубина : 8 бит
Тип развёртки : Прогрессивная
Бит/(Пиксели*Кадры) : 0.203
Размер потока : 325 Мбайт (83%)
Заголовок : Kredo.Ubijcy.Ugli.2011.D.HDRip.x264.R.G.AVI.AVC
Библиотека кодирования : x264 core 116 r2019M 9cc407d
Настройки программы : cabac=1 / ref=12 / deblock=1:-2:-2 / analyse=0x3:0x133 / me=umh / subme=9 / psy=1 / psy_rd=1.00:0.20 /

mixed_ref=1 / me_range=48 / chroma_me=1 / trellis=1 / 8x8dct=1 / cqm=0 / deadzone=21,11 / fast_pskip=0 / chroma_qp_offset=-3 / threads=8 /

sliced_threads=0 / nr=0 / decimate=1 / interlaced=0 / bluray_compat=0 / constrained_intra=0 / bframes=8 / b_pyramid=1 / b_adapt=2 / b_bias=0 /

direct=3 / weightb=1 / open_gop=0 / weightp=2 / keyint=240 / keyint_min=24 / scenecut=40 / intra_refresh=0 / rc_lookahead=40 / rc=2pass / mbtree=1 /

bitrate=2171 / ratetol=1.0 / qcomp=0.60 / qpmin=10 / qpmax=51 / qpstep=4 / cplxblur=20.0 / qblur=0.5 / ip_ratio=1.40 / aq=1:1.20
Default : Да
Forced : Нет

Аудио #1
Идентификатор : 2
Формат : AC-3
Формат/Информация : Audio Coding 3
Расширение режима : CM (complete main)
Параметр Endianness формата : Big
Идентификатор кодека : A_AC3
Продолжительность : 21 м.
Вид битрейта : Постоянный
Битрейт : 192 Кбит/сек
Каналы : 2 канала
Расположение каналов : Front: L R
Частота : 48,0 КГц
Битовая глубина : 16 бит
Метод сжатия : С потерями
Размер потока : 29,4 Мбайт (8%)
Заголовок : Dub
Язык : Russian
Default : Да
Forced : Да

Аудио #2
Идентификатор
40e0e9dd7503782e30a5b4f196f2817b10361ea8Кредо убийцы: Угли / Assassins Creed: Embers (Лорен Бернье, Приключения, мультфильм, 2011) [HDRip-AVC, Профессиональный (полное дублирование)+Оригинал] Кредо убийцы: Угли / Assassins Creed: Embers (Лорен Бернье, Приключения, мультфильм, 2011) [HDRip-AVC, Профессиональный (полное дублирование)+Оригинал] " />

Аплоадер: Админ, дата: 23-08-2012, 14:50, торрент скачан: 359 раз

Понравилась раздача? Посмотрите эти:
  • Андроид / Android (App) (Бобо Боерманс, Tриллер, 2013) [BDRip-AVC, Професси ...
  • Лавлэйс / Lovelace (Роб Эпштейн, Джеффри Фридман, драма, биография, 2013) [ ...
  • Война миров Z / World War Z [Theatrical Cut] (Марк Форстер, ужасы, фантасти ...
  • Никто не выжил / No One Lives (Рюхэй Китамура, Триллер, ужасы, 2012) [BDRip ...
  • Порочные игры / Stoker (Пак Чхан Ук, Триллер, драма, детектив, 2013) [BDRip ...
  • Фантомы / Shutter (Масаюки Очиай, ужасы, триллер, детектив, 2008) [BDRip-AV ...
  • Поймай толстуху, если сможешь [Театральная версия] / Identity Thief [Theatr ...
  • Рикошет / Ricochet (Ник Гомез, драма, детектив, 2011) [BDRip-AVC, Профессио ...
  • Даю год / I Give It a Year (Дэн Мазер, мелодрама, комедия, 2012) [BDRip-AVC ...
  • Суррогат / The Sessions (Бен Луин, Драма, 2012) [BDRip-AVC, Профессиональны ...
  • Чемпионат Англии 2012-2013 / 25-й тур / Обзор / Суббота / BBC Sport [2013 г ...
  • Погоня / Abduction (Джон Синглтон, боевик, триллер, драма, детектив, 2011) ...
  • Драйв / Drive (Николас Виндинг Рёфн, боевик, триллер, драма, криминал, 2011 ...
  • Наёмные убийцы / Contract Killers (Джастин Б. Родс, Боевик, 2009) [HDRip-AV ...
  • Помогите Стать Отцом / Not Suitable For Children (Питер Темплмен, Мелодрама ...
  • Котенок с улицы Лизюкова (Вячеслав Котеночкин, Мультфильм, 1988) [DVDRip-AV ...
  • Безумные мелодии: Кажется я видел котика / Looney Tunes: I Tawt I Taw а Pud ...
  • Скрат: Потерянный орех / Scrat: Gone Nutty (Карлос Салдана, короткометражка ...
  • Заражение / Contagion (Стивен Содерберг, Фантастика, 2011) [BDRip 1080p, Пр ...
  • Лоракс: Серенада / The Lorax: Serenade (Кайл Балда, мультфильм, комедия, му ...
  • Большой отрыв БОБа / B.O.B.s Big Break (Роберт Портер, короткометражка, ан ...
  • Кредо Ассасинов: Пепел / Assassins Creed: Embers (Лоран Бернье/Laurent Bern ...
  • Кредо Убийцы: Пепел / Assassins Creed: Embers (Лорен Бернье, Короткометражк ...
  • Assassins Creed: Embers (мультфильм, короткометражка,2011) [DVDRip,Дубляж]
  • Сейчас самое время / Now Is Good (Ол Паркер, Мелодрама, 2012) [BDRip-AVC, П ...
  • Информация
    Посетители, находящиеся в группе Гости, не могут оставлять комментарии к данной публикации.